<?xml version="1.0" standalone="no"?>
<!DOCTYPE svg PUBLIC "-//W3C//DTD SVG 1.1//EN" "http://www.w3.org/Graphics/SVG/1.1/DTD/svg11.dtd" >
<svg xmlns="http://www.w3.org/2000/svg" xmlns:xlink="http://www.w3.org/1999/xlink" version="1.1">
<metadata>
Created by FontForge 20161116 at Thu Mar  6 06:29:32 2014
 By Jimmy Wärting
Copyright (C) 1996, 2009 Hoefler &#38; Co. http://www.typography.com
</metadata>
<defs>
<font id="Whitney-Medium" horiz-adv-x="527" >
  <font-face 
    font-family="Whitney Medium"
    font-weight="350"
    font-stretch="normal"
    units-per-em="1000"
    panose-1="0 0 0 0 0 0 0 0 0 0"
    ascent="800"
    descent="-200"
    x-height="477"
    cap-height="690"
    bbox="-95 -283 993 1009"
    underline-thickness="50"
    underline-position="-100"
    stemh="80"
    stemv="89"
    unicode-range="U+0020-FB04"
  />
<missing-glyph horiz-adv-x="500" 
d="M0 -200v1000h500v-1000h-500zM71 750l179 -390l179 390h-358zM50 -76l172 376l-172 376v-752zM450 676l-172 -376l172 -376v752zM250 240l-179 -390h358z" />
    <glyph glyph-name="f_f" unicode="ff" horiz-adv-x="622" 
d="M296 633c-10 2 -28 4 -46 4c-41 0 -66 -17 -66 -61v-99h96l11 -75h-107v-402h-87v402h-72v75h72v108c0 95 63 131 148 131c14 0 26 -1 38 -2zM607 633c-10 2 -28 4 -46 4c-41 0 -66 -17 -66 -61v-99h96l11 -75h-107v-402h-87v402h-72v75h72v108c0 95 63 131 148 131
c14 0 26 -1 38 -2z" />
    <glyph glyph-name="fi" unicode="fi" horiz-adv-x="554" 
d="M296 633c-10 2 -28 4 -46 4c-41 0 -66 -17 -66 -61v-99h96l11 -75h-107v-402h-87v402h-72v75h72v108c0 95 63 131 148 131c14 0 26 -1 38 -2zM489 629c0 -31 -25 -56 -56 -56s-57 25 -57 56s26 57 57 57s56 -26 56 -57zM477 0h-89v477h89v-477z" />
    <glyph glyph-name="fl" unicode="fl" horiz-adv-x="554" 
d="M296 633c-10 2 -28 4 -46 4c-41 0 -66 -17 -66 -61v-99h96l11 -75h-107v-402h-87v402h-72v75h72v108c0 95 63 131 148 131c14 0 26 -1 38 -2zM477 0h-89v708l89 14v-722z" />
    <glyph glyph-name="f_f_i" unicode="ffi" horiz-adv-x="865" 
d="M296 633c-10 2 -28 4 -46 4c-41 0 -66 -17 -66 -61v-99h96l11 -75h-107v-402h-87v402h-72v75h72v108c0 95 63 131 148 131c14 0 26 -1 38 -2zM607 633c-10 2 -28 4 -46 4c-41 0 -66 -17 -66 -61v-99h96l11 -75h-107v-402h-87v402h-72v75h72v108c0 95 63 131 148 131
c14 0 26 -1 38 -2zM800 629c0 -31 -25 -56 -56 -56s-57 25 -57 56s26 57 57 57s56 -26 56 -57zM788 0h-89v477h89v-477z" />
    <glyph glyph-name="f_f_l" unicode="ffl" horiz-adv-x="865" 
d="M296 633c-10 2 -28 4 -46 4c-41 0 -66 -17 -66 -61v-99h96l11 -75h-107v-402h-87v402h-72v75h72v108c0 95 63 131 148 131c14 0 26 -1 38 -2zM607 633c-10 2 -28 4 -46 4c-41 0 -66 -17 -66 -61v-99h96l11 -75h-107v-402h-87v402h-72v75h72v108c0 95 63 131 148 131
c14 0 26 -1 38 -2zM788 0h-89v708l89 14v-722z" />
    <glyph glyph-name=".notdef" horiz-adv-x="500" 
d="M0 -200v1000h500v-1000h-500zM71 750l179 -390l179 390h-358zM50 -76l172 376l-172 376v-752zM450 676l-172 -376l172 -376v752zM250 240l-179 -390h358z" />
    <glyph glyph-name="A" unicode="A" horiz-adv-x="688" 
d="M29 0l270 693h94l266 -680l-93 -20l-81 214h-281l-77 -207h-98zM344 583l-110 -293h220z" />
    <glyph glyph-name="B" unicode="B" horiz-adv-x="545" 
d="M503 202c0 -138 -96 -202 -255 -202h-165v690h167c152 0 223 -73 223 -179c0 -70 -37 -117 -99 -143c77 -23 129 -75 129 -166zM381 508c0 63 -39 102 -133 102h-73v-210h66c91 0 140 40 140 108zM411 200c0 80 -56 123 -159 123h-77v-243h80c99 0 156 40 156 120z" />
    <glyph glyph-name="C" unicode="C" horiz-adv-x="632" 
d="M583 54c-53 -39 -130 -67 -209 -67c-194 0 -319 144 -319 357c0 214 127 359 321 359c82 0 143 -21 196 -57l-14 -96c-50 38 -109 67 -183 67c-140 0 -223 -106 -223 -272s84 -271 223 -271c74 0 139 29 194 69z" />
    <glyph glyph-name="D" unicode="D" horiz-adv-x="703" 
d="M646 346c0 -205 -130 -346 -367 -346h-196v690h200c240 0 363 -142 363 -344zM549 345c0 173 -105 260 -263 260h-109v-520h106c166 0 266 84 266 260z" />
    <glyph glyph-name="E" unicode="E" horiz-adv-x="506" 
d="M465 0h-382v690h372v-86h-278v-200h216l14 -86h-230v-232h288v-86z" />
    <glyph glyph-name="F" unicode="F" horiz-adv-x="478" 
d="M442 604h-265v-211h208l14 -86h-222v-307h-94v690h359v-86z" />
    <glyph glyph-name="G" unicode="G" horiz-adv-x="697" 
d="M624 54c-59 -38 -142 -67 -233 -67c-219 0 -336 144 -336 357c0 214 122 359 328 359c92 0 156 -23 210 -59l-15 -96c-51 40 -115 69 -196 69c-151 0 -230 -106 -230 -272s81 -271 239 -271c60 0 100 12 140 34v183h-159l-13 86h265v-323z" />
    <glyph glyph-name="H" unicode="H" horiz-adv-x="703" 
d="M620 0h-94v318h-349v-318h-94v690h94v-286h349v286h94v-690z" />
    <glyph glyph-name="I" unicode="I" horiz-adv-x="272" 
d="M183 0h-94v690h94v-690z" />
    <glyph glyph-name="J" unicode="J" horiz-adv-x="370" 
d="M293 170c0 -123 -78 -177 -195 -177c-22 0 -45 3 -62 6l-14 85c23 -6 44 -9 77 -9c64 0 100 30 100 103v512h94v-520z" />
    <glyph glyph-name="K" unicode="K" horiz-adv-x="609" 
d="M600 15l-104 -22l-319 357v-350h-94v690h94v-310l286 310h120l-304 -324z" />
    <glyph glyph-name="L" unicode="L" horiz-adv-x="468" 
d="M439 0h-356v690h94v-602h249z" />
    <glyph glyph-name="M" unicode="M" horiz-adv-x="900" 
d="M835 0h-90l-43 557l-216 -560h-75l-216 560l-42 -557h-88l55 690h116l215 -566l215 566h115z" />
    <glyph glyph-name="M.alt" horiz-adv-x="881" 
d="M798 0h-87v545l-235 -548h-75l-235 548v-545h-83v690h116l242 -566l243 566h114v-690z" />
    <glyph glyph-name="N" unicode="N" horiz-adv-x="703" 
d="M620 0h-71l-379 537v-537h-87v690h84l366 -517v517h87v-690z" />
    <glyph glyph-name="O" unicode="O" horiz-adv-x="746" 
d="M691 346c0 -213 -124 -359 -319 -359c-194 0 -317 144 -317 357c0 214 125 359 319 359c195 0 317 -144 317 -357zM594 345c0 166 -85 272 -221 272c-137 0 -221 -106 -221 -272s85 -272 221 -272c137 0 221 106 221 272z" />
    <glyph glyph-name="P" unicode="P" horiz-adv-x="536" 
d="M500 491c0 -141 -100 -211 -250 -211h-73v-280h-94v690h183c146 0 234 -71 234 -199zM405 488c0 79 -50 119 -144 119h-84v-244h78c94 0 150 39 150 125z" />
    <glyph glyph-name="Q" unicode="Q" horiz-adv-x="746" 
d="M691 346c0 -176 -85 -294 -213 -336l198 -70l-19 -83l-373 139c-151 56 -229 172 -229 348c0 214 125 359 319 359c195 0 317 -144 317 -357zM594 345c0 166 -85 272 -221 272c-137 0 -221 -106 -221 -272s85 -277 221 -277c137 0 221 111 221 277z" />
    <glyph glyph-name="Q.alt" horiz-adv-x="751" 
d="M704 78l-19 -92l-104 81c-54 -51 -126 -80 -210 -80c-194 0 -317 144 -317 357c0 214 125 359 319 359c195 0 317 -144 317 -357c0 -84 -21 -157 -57 -216zM594 345c0 166 -86 272 -222 272c-137 0 -221 -106 -221 -272s85 -272 221 -272c56 0 103 16 139 47l-160 120
l114 24l96 -78c21 42 33 96 33 159z" />
    <glyph glyph-name="R" unicode="R" horiz-adv-x="570" 
d="M554 14l-99 -21l-208 298h-70v-291h-94v690h188c141 0 229 -70 229 -196c0 -105 -61 -167 -151 -191zM406 489c0 75 -47 118 -139 118h-90v-237h80c91 0 149 41 149 119z" />
    <glyph glyph-name="S" unicode="S" horiz-adv-x="512" 
d="M464 186c0 -119 -89 -194 -218 -194c-75 0 -142 18 -193 45l14 96c47 -31 112 -59 181 -59c72 0 123 38 123 105c0 63 -28 89 -132 136c-130 59 -179 102 -179 201c0 111 85 182 210 182c67 0 117 -16 157 -39l-15 -94c-38 29 -90 51 -145 51c-79 0 -114 -42 -114 -93
c0 -53 26 -78 131 -126c134 -61 180 -107 180 -211z" />
    <glyph glyph-name="T" unicode="T" horiz-adv-x="600" 
d="M573 604h-226v-604h-94v604h-220v86h526z" />
    <glyph glyph-name="U" unicode="U" horiz-adv-x="689" 
d="M613 266c0 -174 -103 -279 -270 -279s-267 106 -267 274v429h94v-417c0 -120 54 -200 173 -200c117 0 176 72 176 197v420h94v-424z" />
    <glyph glyph-name="U.alt" horiz-adv-x="693" 
d="M534 0l-12 77c-66 -51 -137 -85 -219 -85c-139 0 -226 69 -226 227v471h94v-458c0 -103 43 -155 138 -155c75 0 143 35 207 91v522h94v-690h-76z" />
    <glyph glyph-name="V" unicode="V" horiz-adv-x="677" 
d="M648 690l-268 -695h-86l-265 682l96 20l213 -573l209 566h101z" />
    <glyph glyph-name="W" unicode="W" horiz-adv-x="1017" 
d="M982 690l-208 -693h-79l-187 562l-187 -562h-78l-204 680l94 20l154 -549l176 542h94l176 -542l151 542h98z" />
    <glyph glyph-name="W.alt" horiz-adv-x="1019" 
d="M988 690l-247 -693h-84l-149 391l-145 -391h-83l-249 680l96 21l196 -573l140 382l-65 170l96 21l206 -573l187 565h101z" />
    <glyph glyph-name="X" unicode="X" horiz-adv-x="636" 
d="M606 13l-96 -20l-194 299l-186 -292h-104l238 360l-212 317l95 20l171 -266l164 259h105l-216 -327z" />
    <glyph glyph-name="Y" unicode="Y" horiz-adv-x="636" 
d="M614 690l-251 -416v-274h-94v274l-244 403l96 20l196 -335l190 328h107z" />
    <glyph glyph-name="Z" unicode="Z" horiz-adv-x="596" 
d="M558 0h-515v70l393 538h-363l-13 82h489v-70l-393 -538h389z" />
    <glyph glyph-name="a" unicode="a" horiz-adv-x="499" 
d="M431 0h-72l-10 64c-38 -39 -90 -74 -168 -74c-86 0 -140 52 -140 133c0 119 102 166 301 187v20c0 60 -36 81 -91 81c-58 0 -113 -18 -165 -41l-12 77c57 23 111 40 185 40c116 0 172 -47 172 -153v-334zM342 131v111c-176 -17 -213 -65 -213 -114c0 -39 26 -64 71 -64
c52 0 102 26 142 67z" />
    <glyph glyph-name="b" unicode="b" horiz-adv-x="533" 
d="M490 252c0 -174 -96 -258 -234 -258c-72 0 -123 11 -186 30v684l89 14v-301c32 33 78 66 143 66c103 0 188 -76 188 -235zM400 248c0 104 -47 160 -111 160c-50 0 -94 -33 -130 -78v-244c30 -11 52 -16 96 -16c93 0 145 55 145 178z" />
    <glyph glyph-name="c" unicode="c" horiz-adv-x="467" 
d="M428 39c-44 -33 -95 -49 -163 -49c-128 0 -222 89 -222 248c0 162 100 249 228 249c69 0 120 -21 152 -44l-13 -87c-41 33 -85 53 -140 53c-82 0 -137 -60 -137 -170c0 -116 60 -171 140 -171c48 0 95 13 142 53z" />
    <glyph glyph-name="d" unicode="d" horiz-adv-x="538" 
d="M468 0h-71l-11 69c-36 -43 -85 -79 -155 -79c-103 0 -188 75 -188 235c0 174 100 258 216 258c47 0 90 -9 120 -21v246l89 14v-722zM379 153v228c-37 19 -66 27 -117 27c-75 0 -129 -61 -129 -179c0 -105 47 -160 111 -160c55 0 97 33 135 84z" />
    <glyph glyph-name="e" unicode="e" horiz-adv-x="499" 
d="M455 54c-51 -40 -112 -64 -191 -64c-124 0 -221 75 -221 250c0 153 90 247 210 247c139 0 203 -107 203 -239v-19h-324c3 -111 56 -163 139 -163c69 0 119 27 171 68zM252 417c-55 0 -102 -40 -116 -121h230c-11 77 -45 121 -114 121z" />
    <glyph glyph-name="f" unicode="f" horiz-adv-x="311" 
d="M296 633c-10 2 -28 4 -46 4c-41 0 -66 -17 -66 -61v-99h96l11 -75h-107v-402h-87v402h-72v75h72v108c0 95 63 131 148 131c14 0 26 -1 38 -2z" />
    <glyph glyph-name="g" unicode="g" horiz-adv-x="504" 
d="M473 -35c0 -100 -109 -147 -233 -147s-223 39 -223 123c0 49 34 87 101 123c-21 15 -30 32 -30 50c0 23 18 45 50 65c-54 27 -89 77 -89 142c0 103 86 166 183 166c47 0 90 -15 123 -41l121 38l13 -80l-91 -9c12 -22 19 -47 19 -74c0 -102 -86 -164 -183 -164
c-13 0 -25 1 -36 3c-14 -9 -24 -20 -24 -29c0 -17 17 -21 101 -36l34 -6c101 -18 164 -50 164 -124zM242 25c-26 5 -41 7 -60 12c-55 -28 -80 -56 -80 -89c0 -38 49 -66 142 -66s145 32 145 72c0 29 -22 49 -90 61zM331 322c0 57 -40 100 -99 100c-60 0 -97 -46 -97 -104
c0 -55 38 -98 97 -98c61 0 99 45 99 102z" />
    <glyph glyph-name="g.alt" horiz-adv-x="533" 
d="M463 9c0 -115 -65 -191 -214 -191c-67 0 -128 15 -178 37l13 84c49 -28 106 -45 171 -45c86 0 119 45 119 109v61c-32 -32 -78 -65 -143 -65c-103 0 -188 75 -188 231c0 168 96 253 234 253c72 0 123 -11 186 -30v-444zM374 156v234c-30 11 -52 17 -96 17
c-93 0 -145 -57 -145 -174c0 -99 47 -155 111 -155c50 0 94 33 130 78z" />
    <glyph glyph-name="h" unicode="h" 
d="M459 0h-89v325c0 49 -21 82 -73 82c-47 0 -95 -31 -138 -77v-330h-89v708l89 14v-308c39 35 94 73 162 73c90 0 138 -54 138 -140v-347z" />
    <glyph glyph-name="i" unicode="i" horiz-adv-x="243" 
d="M178 629c0 -31 -25 -56 -56 -56s-57 25 -57 56s26 57 57 57s56 -26 56 -57zM166 0h-89v477h89v-477z" />
    <glyph glyph-name="j" unicode="j" horiz-adv-x="243" 
d="M178 629c0 -31 -25 -56 -56 -56s-57 25 -57 56s26 57 57 57s56 -26 56 -57zM166 -60c0 -86 -51 -122 -127 -122c-15 0 -34 1 -41 3l-13 79c11 -3 28 -4 42 -4c31 0 50 16 50 52v529h89v-537z" />
    <glyph glyph-name="k" unicode="k" horiz-adv-x="481" 
d="M468 8l-97 -15l-212 257v-250h-89v708l89 14v-445l185 200h107l-201 -211z" />
    <glyph glyph-name="l" unicode="l" horiz-adv-x="243" 
d="M166 0h-89v708l89 14v-722z" />
    <glyph glyph-name="m" unicode="m" horiz-adv-x="815" 
d="M747 0h-89v325c0 49 -18 82 -70 82c-47 0 -92 -31 -135 -77v-330h-89v325c0 49 -18 82 -70 82c-47 0 -92 -31 -135 -77v-330h-89v477h71l11 -69c45 41 99 79 166 79c70 0 108 -30 126 -79c43 41 101 79 168 79c91 0 135 -54 135 -140v-347z" />
    <glyph glyph-name="n" unicode="n" 
d="M459 0h-89v325c0 49 -21 82 -73 82c-47 0 -95 -31 -138 -77v-330h-89v477h71l11 -69c45 41 101 79 169 79c90 0 138 -54 138 -140v-347z" />
    <glyph glyph-name="o" unicode="o" 
d="M484 238c0 -157 -94 -248 -222 -248c-127 0 -219 91 -219 248s92 249 219 249c128 0 222 -92 222 -249zM394 238c0 98 -46 175 -132 175s-129 -75 -129 -175c0 -98 45 -174 129 -174c88 0 132 74 132 174z" />
    <glyph glyph-name="p" unicode="p" horiz-adv-x="538" 
d="M495 252c0 -174 -100 -258 -216 -258c-47 0 -90 9 -120 21v-188l-89 -13v663h71l11 -69c36 42 85 79 155 79c103 0 188 -76 188 -235zM405 248c0 104 -47 160 -112 160c-54 0 -96 -33 -134 -84v-229c36 -18 65 -26 116 -26c75 0 130 61 130 179z" />
    <glyph glyph-name="q" unicode="q" horiz-adv-x="533" 
d="M463 -173l-89 -13v241c-32 -32 -78 -65 -143 -65c-103 0 -188 75 -188 235c0 174 96 258 234 258c72 0 123 -11 186 -30v-626zM374 147v243c-30 11 -52 17 -96 17c-93 0 -145 -56 -145 -178c0 -105 47 -160 111 -160c50 0 94 33 130 78z" />
    <glyph glyph-name="r" unicode="r" horiz-adv-x="358" 
d="M337 402c-79 -4 -146 -57 -178 -120v-282h-89v477h71l15 -97c34 54 89 103 167 107z" />
    <glyph glyph-name="s" unicode="s" horiz-adv-x="442" 
d="M403 133c0 -87 -65 -143 -188 -143c-63 0 -133 22 -174 45l13 84c45 -31 103 -55 168 -55c61 0 97 23 97 63c0 44 -27 60 -113 81c-112 28 -157 62 -157 147c0 76 64 132 168 132c59 0 112 -12 157 -32l-14 -84c-42 24 -95 41 -145 41c-54 0 -82 -21 -82 -55
c0 -32 24 -50 99 -69c118 -30 171 -64 171 -155z" />
    <glyph glyph-name="t" unicode="t" horiz-adv-x="337" 
d="M299 -2c-15 -3 -36 -6 -67 -6c-84 0 -139 30 -139 126v284h-72v75h72v159l87 13v-172h103l12 -75h-115v-268c0 -39 16 -63 66 -63c16 0 30 1 41 3z" />
    <glyph glyph-name="u" unicode="u" 
d="M457 0h-71l-11 69c-45 -42 -102 -79 -169 -79c-91 0 -138 54 -138 140v347h89v-325c0 -49 21 -82 73 -82c47 0 95 31 138 77v330h89v-477z" />
    <glyph glyph-name="v" unicode="v" horiz-adv-x="471" 
d="M448 477l-169 -480h-87l-168 473l91 14l122 -377l118 370h93z" />
    <glyph glyph-name="w" unicode="w" horiz-adv-x="722" 
d="M694 477l-153 -479h-75l-106 360l-105 -360h-74l-153 472l87 14l104 -360l105 353h75l105 -353l101 353h89z" />
    <glyph glyph-name="x" unicode="x" horiz-adv-x="472" 
d="M443 6l-88 -13l-120 190l-112 -183h-94l159 244l-149 226l88 14l109 -175l104 168h93l-150 -230z" />
    <glyph glyph-name="y" unicode="y" horiz-adv-x="483" 
d="M460 477l-195 -527c-39 -106 -91 -132 -161 -132c-19 0 -29 2 -38 4l-13 81c15 -4 33 -7 47 -7c40 0 67 19 86 70l12 32l-174 472l90 14l128 -378l125 371h93z" />
    <glyph glyph-name="z" unicode="z" horiz-adv-x="452" 
d="M416 0h-381v70l267 333h-243l-12 74h357v-70l-268 -333h268z" />
    <glyph glyph-name="Aacute" unicode="&#xc1;" horiz-adv-x="688" 
d="M29 0l270 693h94l266 -680l-93 -20l-81 214h-281l-77 -207h-98zM344 583l-110 -293h220zM501 889l-134 -127h-60l86 151z" />
    <glyph glyph-name="aacute" unicode="&#xe1;" horiz-adv-x="499" 
d="M431 0h-72l-10 64c-38 -39 -90 -74 -168 -74c-86 0 -140 52 -140 133c0 119 102 166 301 187v20c0 60 -36 81 -91 81c-58 0 -113 -18 -165 -41l-12 77c57 23 111 40 185 40c116 0 172 -47 172 -153v-334zM342 131v111c-176 -17 -213 -65 -213 -114c0 -39 26 -64 71 -64
c52 0 102 26 142 67zM407 674l-134 -127h-60l86 151z" />
    <glyph glyph-name="Abreve" unicode="&#x102;" horiz-adv-x="688" 
d="M29 0l270 693h94l266 -680l-93 -20l-81 214h-281l-77 -207h-98zM344 583l-110 -293h220zM486 879c-14 -73 -58 -116 -143 -116c-79 0 -126 41 -140 116l60 13c10 -37 35 -58 82 -58c45 0 69 21 80 58z" />
    <glyph glyph-name="abreve" unicode="&#x103;" horiz-adv-x="499" 
d="M431 0h-72l-10 64c-38 -39 -90 -74 -168 -74c-86 0 -140 52 -140 133c0 119 102 166 301 187v20c0 60 -36 81 -91 81c-58 0 -113 -18 -165 -41l-12 77c57 23 111 40 185 40c116 0 172 -47 172 -153v-334zM342 131v111c-176 -17 -213 -65 -213 -114c0 -39 26 -64 71 -64
c52 0 102 26 142 67zM392 664c-14 -73 -58 -116 -143 -116c-79 0 -126 41 -140 116l60 13c10 -37 35 -58 82 -58c45 0 69 21 80 58z" />
    <glyph glyph-name="Acircumflex" unicode="&#xc2;" horiz-adv-x="688" 
d="M29 0l270 693h94l266 -680l-93 -20l-81 214h-281l-77 -207h-98zM344 583l-110 -293h220zM485 762h-56l-85 71l-85 -71h-56l99 141h84z" />
    <glyph glyph-name="acircumflex" unicode="&#xe2;" horiz-adv-x="499" 
d="M431 0h-72l-10 64c-38 -39 -90 -74 -168 -74c-86 0 -140 52 -140 133c0 119 102 166 301 187v20c0 60 -36 81 -91 81c-58 0 -113 -18 -165 -41l-12 77c57 23 111 40 185 40c116 0 172 -47 172 -153v-334zM342 131v111c-176 -17 -213 -65 -213 -114c0 -39 26 -64 71 -64
c52 0 102 26 142 67zM391 547h-56l-85 71l-85 -71h-56l99 141h84z" />
    <glyph glyph-name="Adieresis" unicode="&#xc4;" horiz-adv-x="688" 
d="M29 0l270 693h94l266 -680l-93 -20l-81 214h-281l-77 -207h-98zM344 583l-110 -293h220zM483 766h-99v101h99v-101zM304 766h-99v101h99v-101z" />
    <glyph glyph-name="adieresis" unicode="&#xe4;" horiz-adv-x="499" 
d="M431 0h-72l-10 64c-38 -39 -90 -74 -168 -74c-86 0 -140 52 -140 133c0 119 102 166 301 187v20c0 60 -36 81 -91 81c-58 0 -113 -18 -165 -41l-12 77c57 23 111 40 185 40c116 0 172 -47 172 -153v-334zM342 131v111c-176 -17 -213 -65 -213 -114c0 -39 26 -64 71 -64
c52 0 102 26 142 67zM389 551h-99v101h99v-101zM210 551h-99v101h99v-101z" />
    <glyph glyph-name="Agrave" unicode="&#xc0;" horiz-adv-x="688" 
d="M29 0l270 693h94l266 -680l-93 -20l-81 214h-281l-77 -207h-98zM344 583l-110 -293h220zM381 762h-60l-134 127l108 24z" />
    <glyph glyph-name="agrave" unicode="&#xe0;" horiz-adv-x="499" 
d="M431 0h-72l-10 64c-38 -39 -90 -74 -168 -74c-86 0 -140 52 -140 133c0 119 102 166 301 187v20c0 60 -36 81 -91 81c-58 0 -113 -18 -165 -41l-12 77c57 23 111 40 185 40c116 0 172 -47 172 -153v-334zM342 131v111c-176 -17 -213 -65 -213 -114c0 -39 26 -64 71 -64
c52 0 102 26 142 67zM287 547h-60l-134 127l108 24z" />
    <glyph glyph-name="Amacron" unicode="&#x100;" horiz-adv-x="688" 
d="M29 0l270 693h94l266 -680l-93 -20l-81 214h-281l-77 -207h-98zM344 583l-110 -293h220zM477 785h-266v72h266v-72z" />
    <glyph glyph-name="amacron" unicode="&#x101;" horiz-adv-x="499" 
d="M431 0h-72l-10 64c-38 -39 -90 -74 -168 -74c-86 0 -140 52 -140 133c0 119 102 166 301 187v20c0 60 -36 81 -91 81c-58 0 -113 -18 -165 -41l-12 77c57 23 111 40 185 40c116 0 172 -47 172 -153v-334zM342 131v111c-176 -17 -213 -65 -213 -114c0 -39 26 -64 71 -64
c52 0 102 26 142 67zM383 570h-266v72h266v-72z" />
    <glyph glyph-name="Aogonek" unicode="&#x104;" horiz-adv-x="688" 
d="M29 0l270 693h94l266 -680l-31 -7l-21 -29c-21 -29 -32 -49 -32 -68c0 -22 13 -31 38 -31c13 0 27 2 42 5v-54c-21 -8 -47 -14 -72 -14c-48 0 -80 23 -80 72c0 34 20 70 59 114l-77 206h-281l-77 -207h-98zM344 583l-110 -293h220z" />
    <glyph glyph-name="aogonek" unicode="&#x105;" horiz-adv-x="499" 
d="M431 0h-14l-16 -23c-21 -29 -32 -49 -32 -68c0 -22 13 -31 38 -31c13 0 27 2 42 5v-54c-21 -8 -47 -14 -72 -14c-48 0 -80 23 -80 72c0 34 21 71 61 116l-9 61c-38 -39 -90 -74 -168 -74c-86 0 -140 52 -140 133c0 119 102 166 301 187v20c0 60 -36 81 -91 81
c-58 0 -113 -18 -165 -41l-12 77c57 23 111 40 185 40c116 0 172 -47 172 -153v-334zM342 131v111c-176 -17 -213 -65 -213 -114c0 -39 26 -64 71 -64c52 0 102 26 142 67z" />
    <glyph glyph-name="Aring" unicode="&#xc5;" horiz-adv-x="688" 
d="M448 726c0 -34 -14 -62 -37 -80l248 -633l-91 -20l-82 214h-284l-78 -207h-95l250 644c-24 18 -39 47 -39 82c0 59 44 104 104 104s104 -45 104 -104zM344 583l-110 -293h221zM401 726c0 34 -24 60 -57 60s-57 -26 -57 -60s24 -59 57 -59s57 25 57 59z" />
    <glyph glyph-name="aring" unicode="&#xe5;" horiz-adv-x="499" 
d="M431 0h-72l-10 64c-38 -39 -90 -74 -168 -74c-86 0 -140 52 -140 133c0 119 102 166 301 187v20c0 60 -36 81 -91 81c-58 0 -113 -18 -165 -41l-12 77c57 23 111 40 185 40c116 0 172 -47 172 -153v-334zM342 131v111c-176 -17 -213 -65 -213 -114c0 -39 26 -64 71 -64
c52 0 102 26 142 67zM354 647c0 -60 -44 -102 -104 -102s-104 42 -104 102c0 59 44 104 104 104s104 -45 104 -104zM307 647c0 34 -24 60 -57 60s-57 -26 -57 -60s24 -59 57 -59s57 25 57 59z" />
    <glyph glyph-name="Aringacute" unicode="&#x1fa;" horiz-adv-x="688" 
d="M448 726c0 -34 -14 -62 -37 -80l248 -633l-91 -20l-82 214h-284l-78 -207h-95l250 644c-24 18 -39 47 -39 82c0 59 44 104 104 104s104 -45 104 -104zM344 583l-110 -293h221zM503 985l-134 -127h-60l86 151zM401 726c0 34 -24 60 -57 60s-57 -26 -57 -60s24 -59 57 -59
s57 25 57 59z" />
    <glyph glyph-name="aringacute" unicode="&#x1fb;" horiz-adv-x="499" 
d="M431 0h-72l-10 64c-38 -39 -90 -74 -168 -74c-86 0 -140 52 -140 133c0 119 102 166 301 187v20c0 60 -36 81 -91 81c-58 0 -113 -18 -165 -41l-12 77c57 23 111 40 185 40c116 0 172 -47 172 -153v-334zM342 131v111c-176 -17 -213 -65 -213 -114c0 -39 26 -64 71 -64
c52 0 102 26 142 67zM354 647c0 -60 -44 -102 -104 -102s-104 42 -104 102c0 59 44 104 104 104s104 -45 104 -104zM307 647c0 34 -24 60 -57 60s-57 -26 -57 -60s24 -59 57 -59s57 25 57 59zM407 920l-134 -127h-60l86 151z" />
    <glyph glyph-name="Atilde" unicode="&#xc3;" horiz-adv-x="688" 
d="M29 0l270 693h94l266 -680l-93 -20l-81 214h-281l-77 -207h-98zM344 583l-110 -293h220zM502 879c-9 -76 -36 -114 -82 -114c-26 0 -44 9 -71 23c-38 20 -50 25 -65 25s-24 -11 -32 -51l-58 12c9 76 36 114 82 114c26 0 44 -9 71 -23c38 -20 50 -25 65 -25s24 12 32 51z
" />
    <glyph glyph-name="atilde" unicode="&#xe3;" horiz-adv-x="499" 
d="M431 0h-72l-10 64c-38 -39 -90 -74 -168 -74c-86 0 -140 52 -140 133c0 119 102 166 301 187v20c0 60 -36 81 -91 81c-58 0 -113 -18 -165 -41l-12 77c57 23 111 40 185 40c116 0 172 -47 172 -153v-334zM342 131v111c-176 -17 -213 -65 -213 -114c0 -39 26 -64 71 -64
c52 0 102 26 142 67zM408 664c-9 -76 -36 -114 -82 -114c-26 0 -44 9 -71 23c-38 20 -50 25 -65 25s-24 -11 -32 -51l-58 12c9 76 36 114 82 114c26 0 44 -9 71 -23c38 -20 50 -25 65 -25s24 12 32 51z" />
    <glyph glyph-name="Cacute" unicode="&#x106;" horiz-adv-x="632" 
d="M583 54c-53 -39 -130 -67 -209 -67c-194 0 -319 144 -319 357c0 214 127 359 321 359c82 0 143 -21 196 -57l-14 -96c-50 38 -109 67 -183 67c-140 0 -223 -106 -223 -272s84 -271 223 -271c74 0 139 29 194 69zM522 889l-134 -127h-60l86 151z" />
    <glyph glyph-name="cacute" unicode="&#x107;" horiz-adv-x="467" 
d="M428 39c-44 -33 -95 -49 -163 -49c-128 0 -222 89 -222 248c0 162 100 249 228 249c69 0 120 -21 152 -44l-13 -87c-41 33 -85 53 -140 53c-82 0 -137 -60 -137 -170c0 -116 60 -171 140 -171c48 0 95 13 142 53zM420 674l-134 -127h-60l86 151z" />
    <glyph glyph-name="Ccaron" unicode="&#x10c;" horiz-adv-x="632" 
d="M583 54c-53 -39 -130 -67 -209 -67c-194 0 -319 144 -319 357c0 214 127 359 321 359c82 0 143 -21 196 -57l-14 -96c-50 38 -109 67 -183 67c-140 0 -223 -106 -223 -272s84 -271 223 -271c74 0 139 29 194 69zM224 903h56l85 -71l85 71h56l-99 -141h-84z" />
    <glyph glyph-name="ccaron" unicode="&#x10d;" horiz-adv-x="467" 
d="M428 39c-44 -33 -95 -49 -163 -49c-128 0 -222 89 -222 248c0 162 100 249 228 249c69 0 120 -21 152 -44l-13 -87c-41 33 -85 53 -140 53c-82 0 -137 -60 -137 -170c0 -116 60 -171 140 -171c48 0 95 13 142 53zM122 688h56l85 -71l85 71h56l-99 -141h-84z" />
    <glyph glyph-name="Ccedilla" unicode="&#xc7;" horiz-adv-x="632" 
d="M583 54c-53 -39 -130 -67 -209 -67c-194 0 -319 144 -319 357c0 214 127 359 321 359c82 0 143 -21 196 -57l-14 -96c-50 38 -109 67 -183 67c-140 0 -223 -106 -223 -272s84 -271 223 -271c74 0 139 29 194 69zM425 -94l-123 -108h-60l76 133z" />
    <glyph glyph-name="ccedilla" unicode="&#xe7;" horiz-adv-x="467" 
d="M428 39c-44 -33 -95 -49 -163 -49c-128 0 -222 89 -222 248c0 162 100 249 228 249c69 0 120 -21 152 -44l-13 -87c-41 33 -85 53 -140 53c-82 0 -137 -60 -137 -170c0 -116 60 -171 140 -171c48 0 95 13 142 53zM323 -89l-123 -108h-60l76 133z" />
    <glyph glyph-name="Cdotaccent" unicode="&#x10a;" horiz-adv-x="632" 
d="M583 54c-53 -39 -130 -67 -209 -67c-194 0 -319 144 -319 357c0 214 127 359 321 359c82 0 143 -21 196 -57l-14 -96c-50 38 -109 67 -183 67c-140 0 -223 -106 -223 -272s84 -271 223 -271c74 0 139 29 194 69zM415 766h-100v101h100v-101z" />
    <glyph glyph-name="cdotaccent" unicode="&#x10b;" horiz-adv-x="467" 
d="M428 39c-44 -33 -95 -49 -163 -49c-128 0 -222 89 -222 248c0 162 100 249 228 249c69 0 120 -21 152 -44l-13 -87c-41 33 -85 53 -140 53c-82 0 -137 -60 -137 -170c0 -116 60 -171 140 -171c48 0 95 13 142 53zM313 551h-100v101h100v-101z" />
    <glyph glyph-name="Dcaron" unicode="&#x10e;" horiz-adv-x="703" 
d="M646 346c0 -205 -130 -346 -367 -346h-196v690h200c240 0 363 -142 363 -344zM549 345c0 173 -105 260 -263 260h-109v-520h106c166 0 266 84 266 260zM201 893h56l85 -71l85 71h56l-99 -141h-84z" />
    <glyph glyph-name="dcaron" unicode="&#x10f;" horiz-adv-x="538" 
d="M468 0h-71l-11 69c-36 -43 -85 -79 -155 -79c-103 0 -188 75 -188 235c0 174 100 258 216 258c47 0 90 -9 120 -21v246l89 14v-722zM379 153v228c-37 19 -66 27 -117 27c-75 0 -129 -61 -129 -179c0 -105 47 -160 111 -160c55 0 97 33 135 84zM609 721
c12 -23 20 -47 20 -72c0 -46 -29 -89 -67 -122l-45 10c24 36 34 61 34 93c0 25 -10 49 -25 78z" />
    <glyph glyph-name="Dcroat" unicode="&#x110;" horiz-adv-x="720" 
d="M663 346c0 -205 -130 -346 -367 -346h-196v319h-75l-14 84h89v287h200c240 0 363 -142 363 -344zM566 345c0 173 -105 260 -263 260h-109v-202h164v-84h-164v-234h106c166 0 266 84 266 260z" />
    <glyph glyph-name="dcroat" unicode="&#x111;" horiz-adv-x="538" 
d="M468 0h-71l-11 69c-36 -43 -85 -79 -155 -79c-103 0 -188 75 -188 235c0 174 100 258 216 258c47 0 90 -9 120 -21v100h-121l-12 72h133v74l89 14v-88h68v-72h-68v-562zM379 153v228c-37 19 -66 27 -117 27c-75 0 -129 -61 -129 -179c0 -105 47 -160 111 -160
c55 0 97 33 135 84z" />
    <glyph glyph-name="Eacute" unicode="&#xc9;" horiz-adv-x="506" 
d="M465 0h-382v690h372v-86h-278v-200h216l14 -86h-230v-232h288v-86zM429 879l-134 -127h-60l86 151z" />
    <glyph glyph-name="eacute" unicode="&#xe9;" horiz-adv-x="499" 
d="M455 54c-51 -40 -112 -64 -191 -64c-124 0 -221 75 -221 250c0 153 90 247 210 247c139 0 203 -107 203 -239v-19h-324c3 -111 56 -163 139 -163c69 0 119 27 171 68zM252 417c-55 0 -102 -40 -116 -121h230c-11 77 -45 121 -114 121zM416 674l-134 -127h-60l86 151z" />
    <glyph glyph-name="Ebreve" unicode="&#x114;" horiz-adv-x="506" 
d="M465 0h-382v690h372v-86h-278v-200h216l14 -86h-230v-232h288v-86zM414 869c-14 -73 -58 -116 -143 -116c-79 0 -126 41 -140 116l60 13c10 -37 35 -58 82 -58c45 0 69 21 80 58z" />
    <glyph glyph-name="ebreve" unicode="&#x115;" horiz-adv-x="499" 
d="M455 54c-51 -40 -112 -64 -191 -64c-124 0 -221 75 -221 250c0 153 90 247 210 247c139 0 203 -107 203 -239v-19h-324c3 -111 56 -163 139 -163c69 0 119 27 171 68zM252 417c-55 0 -102 -40 -116 -121h230c-11 77 -45 121 -114 121zM401 664
c-14 -73 -58 -116 -143 -116c-79 0 -126 41 -140 116l60 13c10 -37 35 -58 82 -58c45 0 69 21 80 58z" />
    <glyph glyph-name="Ecaron" unicode="&#x11a;" horiz-adv-x="506" 
d="M465 0h-382v690h372v-86h-278v-200h216l14 -86h-230v-232h288v-86zM131 893h56l85 -71l85 71h56l-99 -141h-84z" />
    <glyph glyph-name="ecaron" unicode="&#x11b;" horiz-adv-x="499" 
d="M455 54c-51 -40 -112 -64 -191 -64c-124 0 -221 75 -221 250c0 153 90 247 210 247c139 0 203 -107 203 -239v-19h-324c3 -111 56 -163 139 -163c69 0 119 27 171 68zM252 417c-55 0 -102 -40 -116 -121h230c-11 77 -45 121 -114 121zM118 688h56l85 -71l85 71h56
l-99 -141h-84z" />
    <glyph glyph-name="Ecircumflex" unicode="&#xca;" horiz-adv-x="506" 
d="M465 0h-382v690h372v-86h-278v-200h216l14 -86h-230v-232h288v-86zM413 752h-56l-85 71l-85 -71h-56l99 141h84z" />
    <glyph glyph-name="ecircumflex" unicode="&#xea;" horiz-adv-x="499" 
d="M455 54c-51 -40 -112 -64 -191 -64c-124 0 -221 75 -221 250c0 153 90 247 210 247c139 0 203 -107 203 -239v-19h-324c3 -111 56 -163 139 -163c69 0 119 27 171 68zM252 417c-55 0 -102 -40 -116 -121h230c-11 77 -45 121 -114 121zM400 547h-56l-85 71l-85 -71h-56
l99 141h84z" />
    <glyph glyph-name="Edieresis" unicode="&#xcb;" horiz-adv-x="506" 
d="M465 0h-382v690h372v-86h-278v-200h216l14 -86h-230v-232h288v-86zM411 756h-99v101h99v-101zM232 756h-99v101h99v-101z" />
    <glyph glyph-name="edieresis" unicode="&#xeb;" horiz-adv-x="499" 
d="M455 54c-51 -40 -112 -64 -191 -64c-124 0 -221 75 -221 250c0 153 90 247 210 247c139 0 203 -107 203 -239v-19h-324c3 -111 56 -163 139 -163c69 0 119 27 171 68zM252 417c-55 0 -102 -40 -116 -121h230c-11 77 -45 121 -114 121zM398 551h-99v101h99v-101zM219 551
h-99v101h99v-101z" />
    <glyph glyph-name="Edotaccent" unicode="&#x116;" horiz-adv-x="506" 
d="M465 0h-382v690h372v-86h-278v-200h216l14 -86h-230v-232h288v-86zM322 756h-100v101h100v-101z" />
    <glyph glyph-name="edotaccent" unicode="&#x117;" horiz-adv-x="499" 
d="M455 54c-51 -40 -112 -64 -191 -64c-124 0 -221 75 -221 250c0 153 90 247 210 247c139 0 203 -107 203 -239v-19h-324c3 -111 56 -163 139 -163c69 0 119 27 171 68zM252 417c-55 0 -102 -40 -116 -121h230c-11 77 -45 121 -114 121zM309 551h-100v101h100v-101z" />
    <glyph glyph-name="Egrave" unicode="&#xc8;" horiz-adv-x="506" 
d="M465 0h-382v690h372v-86h-278v-200h216l14 -86h-230v-232h288v-86zM309 752h-60l-134 127l108 24z" />
    <glyph glyph-name="egrave" unicode="&#xe8;" horiz-adv-x="499" 
d="M455 54c-51 -40 -112 -64 -191 -64c-124 0 -221 75 -221 250c0 153 90 247 210 247c139 0 203 -107 203 -239v-19h-324c3 -111 56 -163 139 -163c69 0 119 27 171 68zM252 417c-55 0 -102 -40 -116 -121h230c-11 77 -45 121 -114 121zM296 547h-60l-134 127l108 24z" />
    <glyph glyph-name="Emacron" unicode="&#x112;" horiz-adv-x="506" 
d="M465 0h-382v690h372v-86h-278v-200h216l14 -86h-230v-232h288v-86zM405 775h-266v72h266v-72z" />
    <glyph glyph-name="emacron" unicode="&#x113;" horiz-adv-x="499" 
d="M455 54c-51 -40 -112 -64 -191 -64c-124 0 -221 75 -221 250c0 153 90 247 210 247c139 0 203 -107 203 -239v-19h-324c3 -111 56 -163 139 -163c69 0 119 27 171 68zM252 417c-55 0 -102 -40 -116 -121h230c-11 77 -45 121 -114 121zM392 570h-266v72h266v-72z" />
    <glyph glyph-name="Eogonek" unicode="&#x118;" horiz-adv-x="506" 
d="M465 0h-30l-16 -23c-21 -29 -32 -49 -32 -68c0 -22 13 -31 38 -31c13 0 27 2 42 5v-54c-21 -8 -47 -14 -72 -14c-48 0 -80 23 -80 72c0 33 20 70 58 113h-290v690h372v-86h-278v-200h216l14 -86h-230v-232h288v-86z" />
    <glyph glyph-name="eogonek" unicode="&#x119;" horiz-adv-x="499" 
d="M253 487c139 0 203 -107 203 -239v-19h-324c3 -111 56 -163 139 -163c69 0 119 27 171 68l12 -72l-63 -85c-21 -29 -32 -49 -32 -68c0 -22 13 -31 38 -31c13 0 27 2 42 5v-54c-21 -8 -47 -14 -72 -14c-48 0 -80 23 -80 72c0 33 21 69 59 113c-24 -6 -53 -10 -82 -10
c-124 0 -221 75 -221 250c0 153 90 247 210 247zM252 417c-55 0 -102 -39 -116 -121h230c-11 77 -45 121 -114 121z" />
    <glyph glyph-name="Gbreve" unicode="&#x11e;" horiz-adv-x="697" 
d="M624 54c-59 -38 -142 -67 -233 -67c-219 0 -336 144 -336 357c0 214 122 359 328 359c92 0 156 -23 210 -59l-15 -96c-51 40 -115 69 -196 69c-151 0 -230 -106 -230 -272s81 -271 239 -271c60 0 100 12 140 34v183h-159l-13 86h265v-323zM514 879
c-14 -73 -58 -116 -143 -116c-79 0 -126 41 -140 116l60 13c10 -37 35 -58 82 -58c45 0 69 21 80 58z" />
    <glyph glyph-name="gbreve" unicode="&#x11f;" horiz-adv-x="504" 
d="M473 -35c0 -100 -109 -147 -233 -147s-223 39 -223 123c0 49 34 87 101 123c-21 15 -30 32 -30 50c0 23 18 45 50 65c-54 27 -89 77 -89 142c0 103 86 166 183 166c47 0 90 -15 123 -41l121 38l13 -80l-91 -9c12 -22 19 -47 19 -74c0 -102 -86 -164 -183 -164
c-13 0 -25 1 -36 3c-14 -9 -24 -20 -24 -29c0 -17 17 -21 101 -36l34 -6c101 -18 164 -50 164 -124zM242 25c-26 5 -41 7 -60 12c-55 -28 -80 -56 -80 -89c0 -38 49 -66 142 -66s145 32 145 72c0 29 -22 49 -90 61zM331 322c0 57 -40 100 -99 100c-60 0 -97 -46 -97 -104
c0 -55 38 -98 97 -98c61 0 99 45 99 102zM376 664c-14 -73 -58 -116 -143 -116c-79 0 -126 41 -140 116l60 13c10 -37 35 -58 82 -58c45 0 69 21 80 58z" />
    <glyph glyph-name="gbreve.alt" horiz-adv-x="533" 
d="M463 9c0 -115 -65 -191 -214 -191c-67 0 -128 15 -178 37l13 84c49 -28 106 -45 171 -45c86 0 119 45 119 109v61c-32 -32 -78 -65 -143 -65c-103 0 -188 75 -188 231c0 168 96 253 234 253c72 0 123 -11 186 -30v-444zM374 156v234c-30 11 -52 17 -96 17
c-93 0 -145 -57 -145 -174c0 -99 47 -155 111 -155c50 0 94 33 130 78zM414 664c-14 -73 -58 -116 -143 -116c-79 0 -126 41 -140 116l60 13c10 -37 35 -58 82 -58c45 0 69 21 80 58z" />
    <glyph glyph-name="Gcommaaccent" unicode="&#x122;" horiz-adv-x="697" 
d="M624 54c-59 -38 -142 -67 -233 -67c-219 0 -336 144 -336 357c0 214 122 359 328 359c92 0 156 -23 210 -59l-15 -96c-51 40 -115 69 -196 69c-151 0 -230 -106 -230 -272s81 -271 239 -271c60 0 100 12 140 34v183h-159l-13 86h265v-323zM310 -95l78 26
c28 -30 41 -56 41 -89c0 -32 -15 -70 -71 -125l-55 14c33 44 46 74 46 100c0 28 -12 47 -39 74z" />
    <glyph glyph-name="gcommaaccent" unicode="&#x123;" horiz-adv-x="504" 
d="M473 -35c0 -100 -109 -147 -233 -147s-223 39 -223 123c0 49 34 87 101 123c-21 15 -30 32 -30 50c0 23 18 45 50 65c-54 27 -89 77 -89 142c0 103 86 166 183 166c47 0 90 -15 123 -41l121 38l13 -80l-91 -9c12 -22 19 -47 19 -74c0 -102 -86 -164 -183 -164
c-13 0 -25 1 -36 3c-14 -9 -24 -20 -24 -29c0 -17 17 -21 101 -36l34 -6c101 -18 164 -50 164 -124zM242 25c-26 5 -41 7 -60 12c-55 -28 -80 -56 -80 -89c0 -38 49 -66 142 -66s145 32 145 72c0 29 -22 49 -90 61zM331 322c0 57 -40 100 -99 100c-60 0 -97 -46 -97 -104
c0 -55 38 -98 97 -98c61 0 99 45 99 102zM285 569l-78 -26c-28 30 -41 56 -41 89c0 32 15 70 71 125l55 -14c-33 -44 -46 -74 -46 -100c0 -28 12 -47 39 -74z" />
    <glyph glyph-name="gcommaaccent.alt" horiz-adv-x="533" 
d="M463 9c0 -115 -65 -191 -214 -191c-67 0 -128 15 -178 37l13 84c49 -28 106 -45 171 -45c86 0 119 45 119 109v61c-32 -32 -78 -65 -143 -65c-103 0 -188 75 -188 231c0 168 96 253 234 253c72 0 123 -11 186 -30v-444zM374 156v234c-30 11 -52 17 -96 17
c-93 0 -145 -57 -145 -174c0 -99 47 -155 111 -155c50 0 94 33 130 78zM321 569l-78 -26c-28 30 -41 56 -41 89c0 32 15 70 71 125l55 -14c-33 -44 -46 -74 -46 -100c0 -28 12 -47 39 -74z" />
    <glyph glyph-name="Gdotaccent" unicode="&#x120;" horiz-adv-x="697" 
d="M624 54c-59 -38 -142 -67 -233 -67c-219 0 -336 144 -336 357c0 214 122 359 328 359c92 0 156 -23 210 -59l-15 -96c-51 40 -115 69 -196 69c-151 0 -230 -106 -230 -272s81 -271 239 -271c60 0 100 12 140 34v183h-159l-13 86h265v-323zM422 766h-100v101h100v-101z
" />
    <glyph glyph-name="gdotaccent" unicode="&#x121;" horiz-adv-x="504" 
d="M473 -35c0 -100 -109 -147 -233 -147s-223 39 -223 123c0 49 34 87 101 123c-21 15 -30 32 -30 50c0 23 18 45 50 65c-54 27 -89 77 -89 142c0 103 86 166 183 166c47 0 90 -15 123 -41l121 38l13 -80l-91 -9c12 -22 19 -47 19 -74c0 -102 -86 -164 -183 -164
c-13 0 -25 1 -36 3c-14 -9 -24 -20 -24 -29c0 -17 17 -21 101 -36l34 -6c101 -18 164 -50 164 -124zM242 25c-26 5 -41 7 -60 12c-55 -28 -80 -56 -80 -89c0 -38 49 -66 142 -66s145 32 145 72c0 29 -22 49 -90 61zM331 322c0 57 -40 100 -99 100c-60 0 -97 -46 -97 -104
c0 -55 38 -98 97 -98c61 0 99 45 99 102zM284 551h-100v101h100v-101z" />
    <glyph glyph-name="gdotaccent.alt" horiz-adv-x="533" 
d="M463 9c0 -115 -65 -191 -214 -191c-67 0 -128 15 -178 37l13 84c49 -28 106 -45 171 -45c86 0 119 45 119 109v61c-32 -32 -78 -65 -143 -65c-103 0 -188 75 -188 231c0 168 96 253 234 253c72 0 123 -11 186 -30v-444zM374 156v234c-30 11 -52 17 -96 17
c-93 0 -145 -57 -145 -174c0 -99 47 -155 111 -155c50 0 94 33 130 78zM322 551h-100v101h100v-101z" />
    <glyph glyph-name="Hbar" unicode="&#x126;" horiz-adv-x="737" 
d="M637 0h-94v313h-349v-313h-94v508h-76l-13 79h89v103h94v-103h349v103h94v-103h83v-79h-83v-508zM194 397h349v113h-349v-113z" />
    <glyph glyph-name="hbar" unicode="&#x127;" 
d="M288 562h-129v-148c39 35 94 73 162 73c90 0 138 -54 138 -140v-347h-89v325c0 49 -21 82 -73 82c-47 0 -95 -31 -138 -77v-330h-89v562h-60l-12 72h72v74l89 14v-88h129v-72z" />
    <glyph glyph-name="Iacute" unicode="&#xcd;" horiz-adv-x="272" 
d="M183 0h-94v690h94v-690zM293 879l-134 -127h-60l86 151z" />
    <glyph glyph-name="iacute" unicode="&#xed;" horiz-adv-x="243" 
d="M166 0h-89v477h89v-477zM278 674l-134 -127h-60l86 151z" />
    <glyph glyph-name="Ibreve" unicode="&#x12c;" horiz-adv-x="272" 
d="M183 0h-94v690h94v-690zM278 869c-14 -73 -58 -116 -143 -116c-79 0 -126 41 -140 116l60 13c10 -37 35 -58 82 -58c45 0 69 21 80 58z" />
    <glyph glyph-name="ibreve" unicode="&#x12d;" horiz-adv-x="243" 
d="M166 0h-89v477h89v-477zM263 664c-14 -73 -58 -116 -143 -116c-79 0 -126 41 -140 116l60 13c10 -37 35 -58 82 -58c45 0 69 21 80 58z" />
    <glyph glyph-name="Icircumflex" unicode="&#xce;" horiz-adv-x="272" 
d="M183 0h-94v690h94v-690zM277 752h-56l-85 71l-85 -71h-56l99 141h84z" />
    <glyph glyph-name="icircumflex" unicode="&#xee;" horiz-adv-x="243" 
d="M166 0h-89v477h89v-477zM262 547h-56l-85 71l-85 -71h-56l99 141h84z" />
    <glyph glyph-name="Idieresis" unicode="&#xcf;" horiz-adv-x="272" 
d="M183 0h-94v690h94v-690zM275 756h-99v101h99v-101zM96 756h-99v101h99v-101z" />
    <glyph glyph-name="idieresis" unicode="&#xef;" horiz-adv-x="243" 
d="M166 0h-89v477h89v-477zM260 551h-99v101h99v-101zM81 551h-99v101h99v-101z" />
    <glyph glyph-name="Idotaccent" unicode="&#x130;" horiz-adv-x="272" 
d="M183 0h-94v690h94v-690zM186 756h-100v101h100v-101z" />
    <glyph glyph-name="dotlessi" unicode="&#x131;" horiz-adv-x="243" 
d="M166 0h-89v477h89v-477z" />
    <glyph glyph-name="Igrave" unicode="&#xcc;" horiz-adv-x="272" 
d="M183 0h-94v690h94v-690zM173 752h-60l-134 127l108 24z" />
    <glyph glyph-name="igrave" unicode="&#xec;" horiz-adv-x="243" 
d="M166 0h-89v477h89v-477zM158 547h-60l-134 127l108 24z" />
    <glyph glyph-name="Imacron" unicode="&#x12a;" horiz-adv-x="272" 
d="M183 0h-94v690h94v-690zM269 775h-266v72h266v-72z" />
    <glyph glyph-name="imacron" unicode="&#x12b;" horiz-adv-x="243" 
d="M166 0h-89v477h89v-477zM254 570h-266v72h266v-72z" />
    <glyph glyph-name="Iogonek" unicode="&#x12e;" horiz-adv-x="272" 
d="M183 0h-15l-16 -23c-21 -29 -32 -49 -32 -68c0 -22 13 -31 38 -31c13 0 27 2 42 5v-54c-21 -8 -47 -14 -72 -14c-48 0 -80 23 -80 72c0 33 20 70 58 113h-17v690h94v-690z" />
    <glyph glyph-name="iogonek" unicode="&#x12f;" horiz-adv-x="243" 
d="M166 0h-11l-16 -23c-21 -29 -32 -49 -32 -68c0 -22 13 -31 38 -31c13 0 27 2 42 5v-54c-21 -8 -47 -14 -72 -14c-48 0 -80 23 -80 72c0 33 20 70 58 113h-16v477h89v-477zM178 629c0 -31 -25 -56 -56 -56s-57 25 -57 56s26 57 57 57s56 -26 56 -57z" />
    <glyph glyph-name="Kcommaaccent" unicode="&#x136;" horiz-adv-x="609" 
d="M600 15l-104 -22l-319 357v-350h-94v690h94v-310l286 310h120l-304 -324zM247 -85l78 26c28 -30 41 -56 41 -89c0 -32 -15 -70 -71 -125l-55 14c33 44 46 74 46 100c0 28 -12 47 -39 74z" />
    <glyph glyph-name="kcommaaccent" unicode="&#x137;" horiz-adv-x="481" 
d="M468 8l-97 -15l-212 257v-250h-89v708l89 14v-445l185 200h107l-201 -211zM191 -90l78 26c28 -30 41 -56 41 -89c0 -32 -15 -70 -71 -125l-55 14c33 44 46 74 46 100c0 28 -12 47 -39 74z" />
    <glyph glyph-name="Lacute" unicode="&#x139;" horiz-adv-x="468" 
d="M439 0h-356v690h94v-602h249zM308 874l-134 -127h-60l86 151z" />
    <glyph glyph-name="lacute" unicode="&#x13a;" horiz-adv-x="243" 
d="M166 0h-89v708l89 14v-722zM282 894l-134 -127h-60l86 151z" />
    <glyph glyph-name="Lcaron" unicode="&#x13d;" horiz-adv-x="468" 
d="M439 0h-356v690h94v-602h249zM342 697c12 -23 20 -47 20 -72c0 -46 -29 -89 -67 -122l-45 10c24 36 34 61 34 93c0 25 -10 49 -25 78z" />
    <glyph glyph-name="lcaron" unicode="&#x13e;" horiz-adv-x="243" 
d="M166 0h-89v708l89 14v-722zM307 721c12 -23 20 -47 20 -72c0 -46 -29 -89 -67 -122l-45 10c24 36 34 61 34 93c0 25 -10 49 -25 78z" />
    <glyph glyph-name="Lcommaaccent" unicode="&#x13b;" horiz-adv-x="468" 
d="M439 0h-356v690h94v-602h249zM196 -90l78 26c28 -30 41 -56 41 -89c0 -32 -15 -70 -71 -125l-55 14c33 44 46 74 46 100c0 28 -12 47 -39 74z" />
    <glyph glyph-name="lcommaaccent" unicode="&#x13c;" horiz-adv-x="243" 
d="M166 0h-89v708l89 14v-722zM59 -90l78 26c28 -30 41 -56 41 -89c0 -32 -15 -70 -71 -125l-55 14c33 44 46 74 46 100c0 28 -12 47 -39 74z" />
    <glyph glyph-name="Ldot" unicode="&#x13f;" horiz-adv-x="468" 
d="M416 300h-100v101h100v-101zM439 0h-356v690h94v-602h249z" />
    <glyph glyph-name="ldot" unicode="&#x140;" horiz-adv-x="298" 
d="M166 0h-89v708l89 14v-722zM311 304h-81v101h81v-101z" />
    <glyph glyph-name="Lslash" unicode="&#x141;" horiz-adv-x="485" 
d="M351 399l-157 -87v-224h249l13 -88h-356v259l-75 -42l-14 85l89 49v339h94v-286l157 88v-93z" />
    <glyph glyph-name="lslash" unicode="&#x142;" horiz-adv-x="282" 
d="M185 0h-87v276l-76 -42l-13 85l89 49v340l87 14v-306l82 46v-92l-82 -46v-324z" />
    <glyph glyph-name="Nacute" unicode="&#x143;" horiz-adv-x="703" 
d="M620 0h-71l-379 537v-537h-87v690h84l366 -517v517h87v-690zM508 869l-134 -127h-60l86 151z" />
    <glyph glyph-name="nacute" unicode="&#x144;" 
d="M459 0h-89v325c0 49 -21 82 -73 82c-47 0 -95 -31 -138 -77v-330h-89v477h71l11 -69c45 41 101 79 169 79c90 0 138 -54 138 -140v-347zM421 674l-134 -127h-60l86 151z" />
    <glyph glyph-name="Ncaron" unicode="&#x147;" horiz-adv-x="703" 
d="M620 0h-71l-379 537v-537h-87v690h84l366 -517v517h87v-690zM210 883h56l85 -71l85 71h56l-99 -141h-84z" />
    <glyph glyph-name="ncaron" unicode="&#x148;" 
d="M459 0h-89v325c0 49 -21 82 -73 82c-47 0 -95 -31 -138 -77v-330h-89v477h71l11 -69c45 41 101 79 169 79c90 0 138 -54 138 -140v-347zM123 688h56l85 -71l85 71h56l-99 -141h-84z" />
    <glyph glyph-name="Ncommaaccent" unicode="&#x145;" horiz-adv-x="703" 
d="M620 0h-71l-379 537v-537h-87v690h84l366 -517v517h87v-690zM289 -85l78 26c28 -30 41 -56 41 -89c0 -32 -15 -70 -71 -125l-55 14c33 44 46 74 46 100c0 28 -12 47 -39 74z" />
    <glyph glyph-name="ncommaaccent" unicode="&#x146;" 
d="M459 0h-89v325c0 49 -21 82 -73 82c-47 0 -95 -31 -138 -77v-330h-89v477h71l11 -69c45 41 101 79 169 79c90 0 138 -54 138 -140v-347zM202 -90l78 26c28 -30 41 -56 41 -89c0 -32 -15 -70 -71 -125l-55 14c33 44 46 74 46 100c0 28 -12 47 -39 74z" />
    <glyph glyph-name="Ntilde" unicode="&#xd1;" horiz-adv-x="703" 
d="M620 0h-71l-379 537v-537h-87v690h84l366 -517v517h87v-690zM509 859c-9 -76 -36 -114 -82 -114c-26 0 -44 9 -71 23c-38 20 -50 25 -65 25s-24 -11 -32 -51l-58 12c9 76 36 114 82 114c26 0 44 -9 71 -23c38 -20 50 -25 65 -25s24 12 32 51z" />
    <glyph glyph-name="ntilde" unicode="&#xf1;" 
d="M459 0h-89v325c0 49 -21 82 -73 82c-47 0 -95 -31 -138 -77v-330h-89v477h71l11 -69c45 41 101 79 169 79c90 0 138 -54 138 -140v-347zM422 664c-9 -76 -36 -114 -82 -114c-26 0 -44 9 -71 23c-38 20 -50 25 -65 25s-24 -11 -32 -51l-58 12c9 76 36 114 82 114
c26 0 44 -9 71 -23c38 -20 50 -25 65 -25s24 12 32 51z" />
    <glyph glyph-name="Oacute" unicode="&#xd3;" horiz-adv-x="746" 
d="M691 346c0 -213 -124 -359 -319 -359c-194 0 -317 144 -317 357c0 214 125 359 319 359c195 0 317 -144 317 -357zM594 345c0 166 -85 272 -221 272c-137 0 -221 -106 -221 -272s85 -272 221 -272c137 0 221 106 221 272zM530 889l-134 -127h-60l86 151z" />
    <glyph glyph-name="oacute" unicode="&#xf3;" 
d="M484 238c0 -157 -94 -248 -222 -248c-127 0 -219 91 -219 248s92 249 219 249c128 0 222 -92 222 -249zM394 238c0 98 -46 175 -132 175s-129 -75 -129 -175c0 -98 45 -174 129 -174c88 0 132 74 132 174zM420 674l-134 -127h-60l86 151z" />
    <glyph glyph-name="Obreve" unicode="&#x14e;" horiz-adv-x="746" 
d="M691 346c0 -213 -124 -359 -319 -359c-194 0 -317 144 -317 357c0 214 125 359 319 359c195 0 317 -144 317 -357zM594 345c0 166 -85 272 -221 272c-137 0 -221 -106 -221 -272s85 -272 221 -272c137 0 221 106 221 272zM515 879c-14 -73 -58 -116 -143 -116
c-79 0 -126 41 -140 116l60 13c10 -37 35 -58 82 -58c45 0 69 21 80 58z" />
    <glyph glyph-name="obreve" unicode="&#x14f;" 
d="M484 238c0 -157 -94 -248 -222 -248c-127 0 -219 91 -219 248s92 249 219 249c128 0 222 -92 222 -249zM394 238c0 98 -46 175 -132 175s-129 -75 -129 -175c0 -98 45 -174 129 -174c88 0 132 74 132 174zM405 664c-14 -73 -58 -116 -143 -116c-79 0 -126 41 -140 116
l60 13c10 -37 35 -58 82 -58c45 0 69 21 80 58z" />
    <glyph glyph-name="Ocircumflex" unicode="&#xd4;" horiz-adv-x="746" 
d="M691 346c0 -213 -124 -359 -319 -359c-194 0 -317 144 -317 357c0 214 125 359 319 359c195 0 317 -144 317 -357zM594 345c0 166 -85 272 -221 272c-137 0 -221 -106 -221 -272s85 -272 221 -272c137 0 221 106 221 272zM514 762h-56l-85 71l-85 -71h-56l99 141h84z" />
    <glyph glyph-name="ocircumflex" unicode="&#xf4;" 
d="M484 238c0 -157 -94 -248 -222 -248c-127 0 -219 91 -219 248s92 249 219 249c128 0 222 -92 222 -249zM394 238c0 98 -46 175 -132 175s-129 -75 -129 -175c0 -98 45 -174 129 -174c88 0 132 74 132 174zM404 547h-56l-85 71l-85 -71h-56l99 141h84z" />
    <glyph glyph-name="Odieresis" unicode="&#xd6;" horiz-adv-x="746" 
d="M691 346c0 -213 -124 -359 -319 -359c-194 0 -317 144 -317 357c0 214 125 359 319 359c195 0 317 -144 317 -357zM594 345c0 166 -85 272 -221 272c-137 0 -221 -106 -221 -272s85 -272 221 -272c137 0 221 106 221 272zM512 766h-99v101h99v-101zM333 766h-99v101h99
v-101z" />
    <glyph glyph-name="odieresis" unicode="&#xf6;" 
d="M484 238c0 -157 -94 -248 -222 -248c-127 0 -219 91 -219 248s92 249 219 249c128 0 222 -92 222 -249zM394 238c0 98 -46 175 -132 175s-129 -75 -129 -175c0 -98 45 -174 129 -174c88 0 132 74 132 174zM402 551h-99v101h99v-101zM223 551h-99v101h99v-101z" />
    <glyph glyph-name="Ograve" unicode="&#xd2;" horiz-adv-x="746" 
d="M691 346c0 -213 -124 -359 -319 -359c-194 0 -317 144 -317 357c0 214 125 359 319 359c195 0 317 -144 317 -357zM594 345c0 166 -85 272 -221 272c-137 0 -221 -106 -221 -272s85 -272 221 -272c137 0 221 106 221 272zM410 762h-60l-134 127l108 24z" />
    <glyph glyph-name="ograve" unicode="&#xf2;" 
d="M484 238c0 -157 -94 -248 -222 -248c-127 0 -219 91 -219 248s92 249 219 249c128 0 222 -92 222 -249zM394 238c0 98 -46 175 -132 175s-129 -75 -129 -175c0 -98 45 -174 129 -174c88 0 132 74 132 174zM300 547h-60l-134 127l108 24z" />
    <glyph glyph-name="Ohungarumlaut" unicode="&#x150;" horiz-adv-x="746" 
d="M691 346c0 -213 -124 -359 -319 -359c-194 0 -317 144 -317 357c0 214 125 359 319 359c195 0 317 -144 317 -357zM594 345c0 166 -85 272 -221 272c-137 0 -221 -106 -221 -272s85 -272 221 -272c137 0 221 106 221 272zM594 891l-129 -125h-53l84 147zM437 891
l-129 -125h-53l84 147z" />
    <glyph glyph-name="ohungarumlaut" unicode="&#x151;" 
d="M484 238c0 -157 -94 -248 -222 -248c-127 0 -219 91 -219 248s92 249 219 249c128 0 222 -92 222 -249zM394 238c0 98 -46 175 -132 175s-129 -75 -129 -175c0 -98 45 -174 129 -174c88 0 132 74 132 174zM484 676l-129 -125h-53l84 147zM327 676l-129 -125h-53l84 147z
" />
    <glyph glyph-name="Omacron" unicode="&#x14c;" horiz-adv-x="746" 
d="M691 346c0 -213 -124 -359 -319 -359c-194 0 -317 144 -317 357c0 214 125 359 319 359c195 0 317 -144 317 -357zM594 345c0 166 -85 272 -221 272c-137 0 -221 -106 -221 -272s85 -272 221 -272c137 0 221 106 221 272zM506 785h-266v72h266v-72z" />
    <glyph glyph-name="omacron" unicode="&#x14d;" 
d="M484 238c0 -157 -94 -248 -222 -248c-127 0 -219 91 -219 248s92 249 219 249c128 0 222 -92 222 -249zM394 238c0 98 -46 175 -132 175s-129 -75 -129 -175c0 -98 45 -174 129 -174c88 0 132 74 132 174zM396 570h-266v72h266v-72z" />
    <glyph glyph-name="Oslash" unicode="&#xd8;" horiz-adv-x="746" 
d="M691 346c0 -213 -124 -359 -319 -359c-76 0 -140 22 -191 61l-46 -57l-84 18l76 93c-47 62 -72 145 -72 242c0 214 125 359 319 359c75 0 140 -22 191 -61l46 57l84 -18l-76 -93c47 -62 72 -145 72 -242zM597 345c0 67 -14 124 -40 169l-321 -396c36 -31 83 -47 137 -47
c138 0 224 107 224 274zM373 619c-138 0 -223 -107 -223 -274c0 -67 13 -124 39 -169l320 396c-36 30 -82 47 -136 47z" />
    <glyph glyph-name="oslash" unicode="&#xf8;" 
d="M484 238c0 -157 -94 -248 -222 -248c-47 0 -89 12 -124 36l-32 -42l-74 16l58 73c-30 41 -47 97 -47 165c0 157 92 249 219 249c47 0 91 -13 126 -37l34 43l74 -16l-60 -75c30 -42 48 -97 48 -164zM262 415c-88 0 -132 -75 -132 -177c0 -36 6 -68 17 -95l193 245
c-20 17 -47 27 -78 27zM397 238c0 35 -6 68 -18 95l-194 -245c20 -17 46 -26 77 -26c89 0 135 74 135 176z" />
    <glyph glyph-name="Oslashacute" unicode="&#x1fe;" horiz-adv-x="746" 
d="M691 346c0 -213 -124 -359 -319 -359c-76 0 -140 22 -191 61l-46 -57l-84 18l76 93c-47 62 -72 145 -72 242c0 214 125 359 319 359c75 0 140 -22 191 -61l46 57l84 -18l-76 -93c47 -62 72 -145 72 -242zM597 345c0 67 -14 124 -40 169l-321 -396c36 -31 83 -47 137 -47
c138 0 224 107 224 274zM373 619c-138 0 -223 -107 -223 -274c0 -67 13 -124 39 -169l320 396c-36 30 -82 47 -136 47zM530 889l-134 -127h-60l86 151z" />
    <glyph glyph-name="oslashacute" unicode="&#x1ff;" 
d="M484 238c0 -157 -94 -248 -222 -248c-47 0 -89 12 -124 36l-32 -42l-74 16l58 73c-30 41 -47 97 -47 165c0 157 92 249 219 249c47 0 91 -13 126 -37l34 43l74 -16l-60 -75c30 -42 48 -97 48 -164zM262 415c-88 0 -132 -75 -132 -177c0 -36 6 -68 17 -95l193 245
c-20 17 -47 27 -78 27zM397 238c0 35 -6 68 -18 95l-194 -245c20 -17 46 -26 77 -26c89 0 135 74 135 176zM421 674l-134 -127h-60l86 151z" />
    <glyph glyph-name="Otilde" unicode="&#xd5;" horiz-adv-x="746" 
d="M691 346c0 -213 -124 -359 -319 -359c-194 0 -317 144 -317 357c0 214 125 359 319 359c195 0 317 -144 317 -357zM594 345c0 166 -85 272 -221 272c-137 0 -221 -106 -221 -272s85 -272 221 -272c137 0 221 106 221 272zM531 879c-9 -76 -36 -114 -82 -114
c-26 0 -44 9 -71 23c-38 20 -50 25 -65 25s-24 -11 -32 -51l-58 12c9 76 36 114 82 114c26 0 44 -9 71 -23c38 -20 50 -25 65 -25s24 12 32 51z" />
    <glyph glyph-name="otilde" unicode="&#xf5;" 
d="M484 238c0 -157 -94 -248 -222 -248c-127 0 -219 91 -219 248s92 249 219 249c128 0 222 -92 222 -249zM394 238c0 98 -46 175 -132 175s-129 -75 -129 -175c0 -98 45 -174 129 -174c88 0 132 74 132 174zM421 664c-9 -76 -36 -114 -82 -114c-26 0 -44 9 -71 23
c-38 20 -50 25 -65 25s-24 -11 -32 -51l-58 12c9 76 36 114 82 114c26 0 44 -9 71 -23c38 -20 50 -25 65 -25s24 12 32 51z" />
    <glyph glyph-name="Racute" unicode="&#x154;" horiz-adv-x="570" 
d="M554 14l-99 -21l-208 298h-70v-291h-94v690h188c141 0 229 -70 229 -196c0 -105 -61 -167 -151 -191zM406 489c0 75 -47 118 -139 118h-90v-237h80c91 0 149 41 149 119zM437 879l-134 -127h-60l86 151z" />
    <glyph glyph-name="racute" unicode="&#x155;" horiz-adv-x="358" 
d="M337 402c-79 -4 -146 -57 -178 -120v-282h-89v477h71l15 -97c34 54 89 103 167 107zM343 674l-134 -127h-60l86 151z" />
    <glyph glyph-name="Rcaron" unicode="&#x158;" horiz-adv-x="570" 
d="M554 14l-99 -21l-208 298h-70v-291h-94v690h188c141 0 229 -70 229 -196c0 -105 -61 -167 -151 -191zM406 489c0 75 -47 118 -139 118h-90v-237h80c91 0 149 41 149 119zM139 893h56l85 -71l85 71h56l-99 -141h-84z" />
    <glyph glyph-name="rcaron" unicode="&#x159;" horiz-adv-x="358" 
d="M337 402c-79 -4 -146 -57 -178 -120v-282h-89v477h71l15 -97c34 54 89 103 167 107zM45 688h56l85 -71l85 71h56l-99 -141h-84z" />
    <glyph glyph-name="Rcommaaccent" unicode="&#x156;" horiz-adv-x="570" 
d="M554 14l-99 -21l-208 298h-70v-291h-94v690h188c141 0 229 -70 229 -196c0 -105 -61 -167 -151 -191zM406 489c0 75 -47 118 -139 118h-90v-237h80c91 0 149 41 149 119zM226 -85l78 26c28 -30 41 -56 41 -89c0 -32 -15 -70 -71 -125l-55 14c33 44 46 74 46 100
c0 28 -12 47 -39 74z" />
    <glyph glyph-name="rcommaaccent" unicode="&#x157;" horiz-adv-x="358" 
d="M337 402c-79 -4 -146 -57 -178 -120v-282h-89v477h71l15 -97c34 54 89 103 167 107zM68 -90l78 26c28 -30 41 -56 41 -89c0 -32 -15 -70 -71 -125l-55 14c33 44 46 74 46 100c0 28 -12 47 -39 74z" />
    <glyph glyph-name="Sacute" unicode="&#x15a;" horiz-adv-x="512" 
d="M464 186c0 -119 -89 -194 -218 -194c-75 0 -142 18 -193 45l14 96c47 -31 112 -59 181 -59c72 0 123 38 123 105c0 63 -28 89 -132 136c-130 59 -179 102 -179 201c0 111 85 182 210 182c67 0 117 -16 157 -39l-15 -94c-38 29 -90 51 -145 51c-79 0 -114 -42 -114 -93
c0 -53 26 -78 131 -126c134 -61 180 -107 180 -211zM422 889l-134 -127h-60l86 151z" />
    <glyph glyph-name="sacute" unicode="&#x15b;" horiz-adv-x="442" 
d="M403 133c0 -87 -65 -143 -188 -143c-63 0 -133 22 -174 45l13 84c45 -31 103 -55 168 -55c61 0 97 23 97 63c0 44 -27 60 -113 81c-112 28 -157 62 -157 147c0 76 64 132 168 132c59 0 112 -12 157 -32l-14 -84c-42 24 -95 41 -145 41c-54 0 -82 -21 -82 -55
c0 -32 24 -50 99 -69c118 -30 171 -64 171 -155zM384 674l-134 -127h-60l86 151z" />
    <glyph glyph-name="Scaron" unicode="&#x160;" horiz-adv-x="512" 
d="M464 186c0 -119 -89 -194 -218 -194c-75 0 -142 18 -193 45l14 96c47 -31 112 -59 181 -59c72 0 123 38 123 105c0 63 -28 89 -132 136c-130 59 -179 102 -179 201c0 111 85 182 210 182c67 0 117 -16 157 -39l-15 -94c-38 29 -90 51 -145 51c-79 0 -114 -42 -114 -93
c0 -53 26 -78 131 -126c134 -61 180 -107 180 -211zM124 903h56l85 -71l85 71h56l-99 -141h-84z" />
    <glyph glyph-name="scaron" unicode="&#x161;" horiz-adv-x="442" 
d="M403 133c0 -87 -65 -143 -188 -143c-63 0 -133 22 -174 45l13 84c45 -31 103 -55 168 -55c61 0 97 23 97 63c0 44 -27 60 -113 81c-112 28 -157 62 -157 147c0 76 64 132 168 132c59 0 112 -12 157 -32l-14 -84c-42 24 -95 41 -145 41c-54 0 -82 -21 -82 -55
c0 -32 24 -50 99 -69c118 -30 171 -64 171 -155zM86 688h56l85 -71l85 71h56l-99 -141h-84z" />
    <glyph glyph-name="Scedilla" unicode="&#x15e;" horiz-adv-x="512" 
d="M464 186c0 -119 -89 -194 -218 -194c-75 0 -142 18 -193 45l14 96c47 -31 112 -59 181 -59c72 0 123 38 123 105c0 63 -28 89 -132 136c-130 59 -179 102 -179 201c0 111 85 182 210 182c67 0 117 -16 157 -39l-15 -94c-38 29 -90 51 -145 51c-79 0 -114 -42 -114 -93
c0 -53 26 -78 131 -126c134 -61 180 -107 180 -211zM325 -94l-123 -108h-60l76 133z" />
    <glyph glyph-name="scedilla" unicode="&#x15f;" horiz-adv-x="442" 
d="M403 133c0 -87 -65 -143 -188 -143c-63 0 -133 22 -174 45l13 84c45 -31 103 -55 168 -55c61 0 97 23 97 63c0 44 -27 60 -113 81c-112 28 -157 62 -157 147c0 76 64 132 168 132c59 0 112 -12 157 -32l-14 -84c-42 24 -95 41 -145 41c-54 0 -82 -21 -82 -55
c0 -32 24 -50 99 -69c118 -30 171 -64 171 -155zM287 -89l-123 -108h-60l76 133z" />
    <glyph glyph-name="Scommaaccent" unicode="&#x218;" horiz-adv-x="512" 
d="M464 186c0 -119 -89 -194 -218 -194c-75 0 -142 18 -193 45l14 96c47 -31 112 -59 181 -59c72 0 123 38 123 105c0 63 -28 89 -132 136c-130 59 -179 102 -179 201c0 111 85 182 210 182c67 0 117 -16 157 -39l-15 -94c-38 29 -90 51 -145 51c-79 0 -114 -42 -114 -93
c0 -53 26 -78 131 -126c134 -61 180 -107 180 -211zM203 -95l78 26c28 -30 41 -56 41 -89c0 -32 -15 -70 -71 -125l-55 14c33 44 46 74 46 100c0 28 -12 47 -39 74z" />
    <glyph glyph-name="scommaaccent" unicode="&#x219;" horiz-adv-x="442" 
d="M403 133c0 -87 -65 -143 -188 -143c-63 0 -133 22 -174 45l13 84c45 -31 103 -55 168 -55c61 0 97 23 97 63c0 44 -27 60 -113 81c-112 28 -157 62 -157 147c0 76 64 132 168 132c59 0 112 -12 157 -32l-14 -84c-42 24 -95 41 -145 41c-54 0 -82 -21 -82 -55
c0 -32 24 -50 99 -69c118 -30 171 -64 171 -155zM165 -90l78 26c28 -30 41 -56 41 -89c0 -32 -15 -70 -71 -125l-55 14c33 44 46 74 46 100c0 28 -12 47 -39 74z" />
    <glyph glyph-name="Tcaron" unicode="&#x164;" horiz-adv-x="600" 
d="M573 604h-226v-604h-94v604h-220v86h526zM162 893h56l85 -71l85 71h56l-99 -141h-84z" />
    <glyph glyph-name="tcaron" unicode="&#x165;" horiz-adv-x="337" 
d="M299 -2c-15 -3 -36 -6 -67 -6c-84 0 -139 30 -139 126v284h-72v75h72v159l87 13v-172h103l12 -75h-115v-268c0 -39 16 -63 66 -63c16 0 30 1 41 3zM330 734c12 -23 20 -47 20 -72c0 -46 -29 -89 -67 -122l-45 10c24 36 34 61 34 93c0 25 -10 49 -25 78z" />
    <glyph glyph-name="Tcommaaccent" unicode="&#x162;" horiz-adv-x="600" 
d="M573 604h-226v-604h-94v604h-220v86h526zM241 -90l78 26c28 -30 41 -56 41 -89c0 -32 -15 -70 -71 -125l-55 14c33 44 46 74 46 100c0 28 -12 47 -39 74z" />
    <glyph glyph-name="Tcommaaccent" unicode="&#x21a;" horiz-adv-x="600" 
d="M573 604h-226v-604h-94v604h-220v86h526zM241 -90l78 26c28 -30 41 -56 41 -89c0 -32 -15 -70 -71 -125l-55 14c33 44 46 74 46 100c0 28 -12 47 -39 74z" />
    <glyph glyph-name="tcommaaccent" unicode="&#x163;" horiz-adv-x="337" 
d="M299 -2c-15 -3 -36 -6 -67 -6c-84 0 -139 30 -139 126v284h-72v75h72v159l87 13v-172h103l12 -75h-115v-268c0 -39 16 -63 66 -63c16 0 30 1 41 3zM130 -90l78 26c28 -30 41 -56 41 -89c0 -32 -15 -70 -71 -125l-55 14c33 44 46 74 46 100c0 28 -12 47 -39 74z" />
    <glyph glyph-name="tcommaaccent" unicode="&#x21b;" horiz-adv-x="337" 
d="M299 -2c-15 -3 -36 -6 -67 -6c-84 0 -139 30 -139 126v284h-72v75h72v159l87 13v-172h103l12 -75h-115v-268c0 -39 16 -63 66 -63c16 0 30 1 41 3zM130 -90l78 26c28 -30 41 -56 41 -89c0 -32 -15 -70 -71 -125l-55 14c33 44 46 74 46 100c0 28 -12 47 -39 74z" />
    <glyph glyph-name="Uacute" unicode="&#xda;" horiz-adv-x="689" 
d="M613 266c0 -174 -103 -279 -270 -279s-267 106 -267 274v429h94v-417c0 -120 54 -200 173 -200c117 0 176 72 176 197v420h94v-424zM501 869l-134 -127h-60l86 151z" />
    <glyph glyph-name="uacute" unicode="&#xfa;" 
d="M457 0h-71l-11 69c-45 -42 -102 -79 -169 -79c-91 0 -138 54 -138 140v347h89v-325c0 -49 21 -82 73 -82c47 0 95 31 138 77v330h89v-477zM419 674l-134 -127h-60l86 151z" />
    <glyph glyph-name="Uacute.alt" horiz-adv-x="693" 
d="M534 0l-12 77c-66 -51 -137 -85 -219 -85c-139 0 -226 69 -226 227v471h94v-458c0 -103 43 -155 138 -155c75 0 143 35 207 91v522h94v-690h-76zM502 869l-134 -127h-60l86 151z" />
    <glyph glyph-name="Ubreve" unicode="&#x16c;" horiz-adv-x="689" 
d="M613 266c0 -174 -103 -279 -270 -279s-267 106 -267 274v429h94v-417c0 -120 54 -200 173 -200c117 0 176 72 176 197v420h94v-424zM486 854c-14 -73 -58 -116 -143 -116c-79 0 -126 41 -140 116l60 13c10 -37 35 -58 82 -58c45 0 69 21 80 58z" />
    <glyph glyph-name="ubreve" unicode="&#x16d;" 
d="M457 0h-71l-11 69c-45 -42 -102 -79 -169 -79c-91 0 -138 54 -138 140v347h89v-325c0 -49 21 -82 73 -82c47 0 95 31 138 77v330h89v-477zM404 664c-14 -73 -58 -116 -143 -116c-79 0 -126 41 -140 116l60 13c10 -37 35 -58 82 -58c45 0 69 21 80 58z" />
    <glyph glyph-name="Ubreve.alt" horiz-adv-x="693" 
d="M534 0l-12 77c-66 -51 -137 -85 -219 -85c-139 0 -226 69 -226 227v471h94v-458c0 -103 43 -155 138 -155c75 0 143 35 207 91v522h94v-690h-76zM487 854c-14 -73 -58 -116 -143 -116c-79 0 -126 41 -140 116l60 13c10 -37 35 -58 82 -58c45 0 69 21 80 58z" />
    <glyph glyph-name="Ucircumflex" unicode="&#xdb;" horiz-adv-x="689" 
d="M613 266c0 -174 -103 -279 -270 -279s-267 106 -267 274v429h94v-417c0 -120 54 -200 173 -200c117 0 176 72 176 197v420h94v-424zM485 742h-56l-85 71l-85 -71h-56l99 141h84z" />
    <glyph glyph-name="ucircumflex" unicode="&#xfb;" 
d="M457 0h-71l-11 69c-45 -42 -102 -79 -169 -79c-91 0 -138 54 -138 140v347h89v-325c0 -49 21 -82 73 -82c47 0 95 31 138 77v330h89v-477zM403 547h-56l-85 71l-85 -71h-56l99 141h84z" />
    <glyph glyph-name="Ucircumflex.alt" horiz-adv-x="693" 
d="M534 0l-12 77c-66 -51 -137 -85 -219 -85c-139 0 -226 69 -226 227v471h94v-458c0 -103 43 -155 138 -155c75 0 143 35 207 91v522h94v-690h-76zM486 742h-56l-85 71l-85 -71h-56l99 141h84z" />
    <glyph glyph-name="Udieresis" unicode="&#xdc;" horiz-adv-x="689" 
d="M613 266c0 -174 -103 -279 -270 -279s-267 106 -267 274v429h94v-417c0 -120 54 -200 173 -200c117 0 176 72 176 197v420h94v-424zM483 746h-99v101h99v-101zM304 746h-99v101h99v-101z" />
    <glyph glyph-name="udieresis" unicode="&#xfc;" 
d="M457 0h-71l-11 69c-45 -42 -102 -79 -169 -79c-91 0 -138 54 -138 140v347h89v-325c0 -49 21 -82 73 -82c47 0 95 31 138 77v330h89v-477zM401 551h-99v101h99v-101zM222 551h-99v101h99v-101z" />
    <glyph glyph-name="Udieresis.alt" horiz-adv-x="693" 
d="M534 0l-12 77c-66 -51 -137 -85 -219 -85c-139 0 -226 69 -226 227v471h94v-458c0 -103 43 -155 138 -155c75 0 143 35 207 91v522h94v-690h-76zM484 746h-99v101h99v-101zM305 746h-99v101h99v-101z" />
    <glyph glyph-name="Ugrave" unicode="&#xd9;" horiz-adv-x="689" 
d="M613 266c0 -174 -103 -279 -270 -279s-267 106 -267 274v429h94v-417c0 -120 54 -200 173 -200c117 0 176 72 176 197v420h94v-424zM381 742h-60l-134 127l108 24z" />
    <glyph glyph-name="ugrave" unicode="&#xf9;" 
d="M457 0h-71l-11 69c-45 -42 -102 -79 -169 -79c-91 0 -138 54 -138 140v347h89v-325c0 -49 21 -82 73 -82c47 0 95 31 138 77v330h89v-477zM299 547h-60l-134 127l108 24z" />
    <glyph glyph-name="Ugrave.alt" horiz-adv-x="693" 
d="M534 0l-12 77c-66 -51 -137 -85 -219 -85c-139 0 -226 69 -226 227v471h94v-458c0 -103 43 -155 138 -155c75 0 143 35 207 91v522h94v-690h-76zM382 742h-60l-134 127l108 24z" />
    <glyph glyph-name="Uhungarumlaut" unicode="&#x170;" horiz-adv-x="689" 
d="M613 266c0 -174 -103 -279 -270 -279s-267 106 -267 274v429h94v-417c0 -120 54 -200 173 -200c117 0 176 72 176 197v420h94v-424zM565 871l-129 -125h-53l84 147zM408 871l-129 -125h-53l84 147z" />
    <glyph glyph-name="uhungarumlaut" unicode="&#x171;" 
d="M457 0h-71l-11 69c-45 -42 -102 -79 -169 -79c-91 0 -138 54 -138 140v347h89v-325c0 -49 21 -82 73 -82c47 0 95 31 138 77v330h89v-477zM483 676l-129 -125h-53l84 147zM326 676l-129 -125h-53l84 147z" />
    <glyph glyph-name="Uhungarumlaut.alt" horiz-adv-x="693" 
d="M534 0l-12 77c-66 -51 -137 -85 -219 -85c-139 0 -226 69 -226 227v471h94v-458c0 -103 43 -155 138 -155c75 0 143 35 207 91v522h94v-690h-76zM566 871l-129 -125h-53l84 147zM409 871l-129 -125h-53l84 147z" />
    <glyph glyph-name="Umacron" unicode="&#x16a;" horiz-adv-x="689" 
d="M613 266c0 -174 -103 -279 -270 -279s-267 106 -267 274v429h94v-417c0 -120 54 -200 173 -200c117 0 176 72 176 197v420h94v-424zM477 765h-266v72h266v-72z" />
    <glyph glyph-name="umacron" unicode="&#x16b;" 
d="M457 0h-71l-11 69c-45 -42 -102 -79 -169 -79c-91 0 -138 54 -138 140v347h89v-325c0 -49 21 -82 73 -82c47 0 95 31 138 77v330h89v-477zM395 570h-266v72h266v-72z" />
    <glyph glyph-name="Umacron.alt" horiz-adv-x="693" 
d="M534 0l-12 77c-66 -51 -137 -85 -219 -85c-139 0 -226 69 -226 227v471h94v-458c0 -103 43 -155 138 -155c75 0 143 35 207 91v522h94v-690h-76zM478 765h-266v72h266v-72z" />
    <glyph glyph-name="Uogonek" unicode="&#x172;" horiz-adv-x="689" 
d="M613 266c0 -160 -87 -261 -230 -276l-9 -13c-21 -29 -32 -49 -32 -68c0 -22 13 -31 38 -31c13 0 27 2 42 5v-54c-21 -8 -47 -14 -72 -14c-48 0 -80 23 -80 72c0 30 16 63 48 101c-152 10 -242 113 -242 273v429h94v-417c0 -120 54 -200 173 -200c117 0 176 72 176 197
v420h94v-424z" />
    <glyph glyph-name="uogonek" unicode="&#x173;" 
d="M457 0h-14l-16 -23c-21 -29 -32 -49 -32 -68c0 -22 13 -31 38 -31c13 0 27 2 42 5v-54c-21 -8 -47 -14 -72 -14c-48 0 -80 23 -80 72c0 34 21 71 61 116l1 1l-10 65c-45 -42 -102 -79 -169 -79c-91 0 -138 54 -138 140v347h89v-325c0 -49 21 -82 73 -82
c47 0 95 31 138 77v330h89v-477z" />
    <glyph glyph-name="Uogonek.alt" horiz-adv-x="693" 
d="M610 0h-28l-16 -23c-21 -29 -32 -49 -32 -68c0 -22 13 -31 38 -31c13 0 27 2 42 5v-54c-21 -8 -47 -14 -72 -14c-48 0 -80 23 -80 72c0 34 21 71 61 116l9 10l-10 64c-66 -51 -137 -85 -219 -85c-139 0 -226 69 -226 227v471h94v-458c0 -103 43 -155 138 -155
c75 0 143 35 207 91v522h94v-690z" />
    <glyph glyph-name="Uring" unicode="&#x16e;" horiz-adv-x="689" 
d="M613 266c0 -174 -103 -279 -270 -279s-267 106 -267 274v429h94v-417c0 -120 54 -200 173 -200c117 0 176 72 176 197v420h94v-424zM448 832c0 -60 -44 -102 -104 -102s-104 42 -104 102c0 59 44 104 104 104s104 -45 104 -104zM401 832c0 34 -24 60 -57 60
s-57 -26 -57 -60s24 -59 57 -59s57 25 57 59z" />
    <glyph glyph-name="uring" unicode="&#x16f;" 
d="M457 0h-71l-11 69c-45 -42 -102 -79 -169 -79c-91 0 -138 54 -138 140v347h89v-325c0 -49 21 -82 73 -82c47 0 95 31 138 77v330h89v-477zM366 647c0 -60 -44 -102 -104 -102s-104 42 -104 102c0 59 44 104 104 104s104 -45 104 -104zM319 647c0 34 -24 60 -57 60
s-57 -26 -57 -60s24 -59 57 -59s57 25 57 59z" />
    <glyph glyph-name="Uring.alt" horiz-adv-x="693" 
d="M534 0l-12 77c-66 -51 -137 -85 -219 -85c-139 0 -226 69 -226 227v471h94v-458c0 -103 43 -155 138 -155c75 0 143 35 207 91v522h94v-690h-76zM449 832c0 -60 -44 -102 -104 -102s-104 42 -104 102c0 59 44 104 104 104s104 -45 104 -104zM402 832c0 34 -24 60 -57 60
s-57 -26 -57 -60s24 -59 57 -59s57 25 57 59z" />
    <glyph glyph-name="Wacute" unicode="&#x1e82;" horiz-adv-x="1017" 
d="M982 690l-208 -693h-79l-187 562l-187 -562h-78l-204 680l94 20l154 -549l176 542h94l176 -542l151 542h98zM667 879l-134 -127h-60l86 151z" />
    <glyph glyph-name="wacute" unicode="&#x1e83;" horiz-adv-x="722" 
d="M694 477l-153 -479h-75l-106 360l-105 -360h-74l-153 472l87 14l104 -360l105 353h75l105 -353l101 353h89zM519 674l-134 -127h-60l86 151z" />
    <glyph glyph-name="Wacute.alt" horiz-adv-x="1019" 
d="M988 690l-247 -693h-84l-149 391l-145 -391h-83l-249 680l96 21l196 -573l140 382l-65 170l96 21l206 -573l187 565h101zM666 879l-134 -127h-60l86 151z" />
    <glyph glyph-name="Wcircumflex" unicode="&#x174;" horiz-adv-x="1017" 
d="M982 690l-208 -693h-79l-187 562l-187 -562h-78l-204 680l94 20l154 -549l176 542h94l176 -542l151 542h98zM651 752h-56l-85 71l-85 -71h-56l99 141h84z" />
    <glyph glyph-name="wcircumflex" unicode="&#x175;" horiz-adv-x="722" 
d="M694 477l-153 -479h-75l-106 360l-105 -360h-74l-153 472l87 14l104 -360l105 353h75l105 -353l101 353h89zM503 547h-56l-85 71l-85 -71h-56l99 141h84z" />
    <glyph glyph-name="Wcircumflex.alt" horiz-adv-x="1019" 
d="M988 690l-247 -693h-84l-149 391l-145 -391h-83l-249 680l96 21l196 -573l140 382l-65 170l96 21l206 -573l187 565h101zM650 752h-56l-85 71l-85 -71h-56l99 141h84z" />
    <glyph glyph-name="Wdieresis" unicode="&#x1e84;" horiz-adv-x="1017" 
d="M982 690l-208 -693h-79l-187 562l-187 -562h-78l-204 680l94 20l154 -549l176 542h94l176 -542l151 542h98zM649 756h-99v101h99v-101zM470 756h-99v101h99v-101z" />
    <glyph glyph-name="wdieresis" unicode="&#x1e85;" horiz-adv-x="722" 
d="M694 477l-153 -479h-75l-106 360l-105 -360h-74l-153 472l87 14l104 -360l105 353h75l105 -353l101 353h89zM501 551h-99v101h99v-101zM322 551h-99v101h99v-101z" />
    <glyph glyph-name="Wdieresis.alt" horiz-adv-x="1019" 
d="M988 690l-247 -693h-84l-149 391l-145 -391h-83l-249 680l96 21l196 -573l140 382l-65 170l96 21l206 -573l187 565h101zM469 756h-99v101h99v-101zM648 756h-99v101h99v-101z" />
    <glyph glyph-name="Wgrave" unicode="&#x1e80;" horiz-adv-x="1017" 
d="M982 690l-208 -693h-79l-187 562l-187 -562h-78l-204 680l94 20l154 -549l176 542h94l176 -542l151 542h98zM547 752h-60l-134 127l108 24z" />
    <glyph glyph-name="wgrave" unicode="&#x1e81;" horiz-adv-x="722" 
d="M694 477l-153 -479h-75l-106 360l-105 -360h-74l-153 472l87 14l104 -360l105 353h75l105 -353l101 353h89zM399 547h-60l-134 127l108 24z" />
    <glyph glyph-name="Wgrave.alt" horiz-adv-x="1019" 
d="M988 690l-247 -693h-84l-149 391l-145 -391h-83l-249 680l96 21l196 -573l140 382l-65 170l96 21l206 -573l187 565h101zM546 752h-60l-134 127l108 24z" />
    <glyph glyph-name="Yacute" unicode="&#xdd;" horiz-adv-x="636" 
d="M614 690l-251 -416v-274h-94v274l-244 403l96 20l196 -335l190 328h107zM475 869l-134 -127h-60l86 151z" />
    <glyph glyph-name="yacute" unicode="&#xfd;" horiz-adv-x="483" 
d="M460 477l-195 -527c-39 -106 -91 -132 -161 -132c-19 0 -29 2 -38 4l-13 81c15 -4 33 -7 47 -7c40 0 67 19 86 70l12 32l-174 472l90 14l128 -378l125 371h93zM399 674l-134 -127h-60l86 151z" />
    <glyph glyph-name="Ycircumflex" unicode="&#x176;" horiz-adv-x="636" 
d="M614 690l-251 -416v-274h-94v274l-244 403l96 20l196 -335l190 328h107zM459 742h-56l-85 71l-85 -71h-56l99 141h84z" />
    <glyph glyph-name="ycircumflex" unicode="&#x177;" horiz-adv-x="483" 
d="M460 477l-195 -527c-39 -106 -91 -132 -161 -132c-19 0 -29 2 -38 4l-13 81c15 -4 33 -7 47 -7c40 0 67 19 86 70l12 32l-174 472l90 14l128 -378l125 371h93zM383 547h-56l-85 71l-85 -71h-56l99 141h84z" />
    <glyph glyph-name="Ydieresis" unicode="&#x178;" horiz-adv-x="636" 
d="M614 690l-251 -416v-274h-94v274l-244 403l96 20l196 -335l190 328h107zM457 746h-99v101h99v-101zM278 746h-99v101h99v-101z" />
    <glyph glyph-name="ydieresis" unicode="&#xff;" horiz-adv-x="483" 
d="M460 477l-195 -527c-39 -106 -91 -132 -161 -132c-19 0 -29 2 -38 4l-13 81c15 -4 33 -7 47 -7c40 0 67 19 86 70l12 32l-174 472l90 14l128 -378l125 371h93zM381 551h-99v101h99v-101zM202 551h-99v101h99v-101z" />
    <glyph glyph-name="Ygrave" unicode="&#x1ef2;" horiz-adv-x="636" 
d="M614 690l-251 -416v-274h-94v274l-244 403l96 20l196 -335l190 328h107zM355 742h-60l-134 127l108 24z" />
    <glyph glyph-name="ygrave" unicode="&#x1ef3;" horiz-adv-x="483" 
d="M460 477l-195 -527c-39 -106 -91 -132 -161 -132c-19 0 -29 2 -38 4l-13 81c15 -4 33 -7 47 -7c40 0 67 19 86 70l12 32l-174 472l90 14l128 -378l125 371h93zM279 547h-60l-134 127l108 24z" />
    <glyph glyph-name="Zacute" unicode="&#x179;" horiz-adv-x="596" 
d="M558 0h-515v70l393 538h-363l-13 82h489v-70l-393 -538h389zM455 879l-134 -127h-60l86 151z" />
    <glyph glyph-name="zacute" unicode="&#x17a;" horiz-adv-x="452" 
d="M416 0h-381v70l267 333h-243l-12 74h357v-70l-268 -333h268zM382 674l-134 -127h-60l86 151z" />
    <glyph glyph-name="Zcaron" unicode="&#x17d;" horiz-adv-x="596" 
d="M558 0h-515v70l393 538h-363l-13 82h489v-70l-393 -538h389zM157 893h56l85 -71l85 71h56l-99 -141h-84z" />
    <glyph glyph-name="zcaron" unicode="&#x17e;" horiz-adv-x="452" 
d="M416 0h-381v70l267 333h-243l-12 74h357v-70l-268 -333h268zM84 688h56l85 -71l85 71h56l-99 -141h-84z" />
    <glyph glyph-name="Zdotaccent" unicode="&#x17b;" horiz-adv-x="596" 
d="M558 0h-515v70l393 538h-363l-13 82h489v-70l-393 -538h389zM348 756h-100v101h100v-101z" />
    <glyph glyph-name="zdotaccent" unicode="&#x17c;" horiz-adv-x="452" 
d="M416 0h-381v70l267 333h-243l-12 74h357v-70l-268 -333h268zM275 551h-100v101h100v-101z" />
    <glyph glyph-name="AE" unicode="&#xc6;" horiz-adv-x="885" 
d="M2 0l411 690h421v-86h-280v-200h218l13 -86h-231v-232h290v-86h-382v207h-237l-121 -207h-102zM274 290h188v316z" />
    <glyph glyph-name="ae" unicode="&#xe6;" horiz-adv-x="790" 
d="M746 248v-19h-324c4 -111 57 -163 139 -163c69 0 120 27 172 68l12 -80c-50 -40 -111 -64 -190 -64c-70 0 -132 24 -173 76c-45 -41 -106 -76 -185 -76c-91 0 -156 45 -156 133c0 112 93 165 292 186v21c0 60 -27 81 -82 81c-58 0 -113 -18 -165 -41l-12 77
c57 23 110 40 178 40c82 0 122 -18 148 -67c34 43 83 67 144 67c139 0 202 -107 202 -239zM656 296c-10 77 -45 121 -113 121c-55 0 -103 -39 -116 -121h229zM350 127c-10 32 -17 70 -17 113v1c-168 -18 -204 -65 -204 -113c0 -41 31 -64 80 -64c50 0 95 20 141 63z" />
    <glyph glyph-name="AEacute" unicode="&#x1fc;" horiz-adv-x="885" 
d="M2 0l411 690h421v-86h-280v-200h218l13 -86h-231v-232h290v-86h-382v207h-237l-121 -207h-102zM274 290h188v316zM675 879l-134 -127h-60l86 151z" />
    <glyph glyph-name="aeacute" unicode="&#x1fd;" horiz-adv-x="790" 
d="M746 248v-19h-324c4 -111 57 -163 139 -163c69 0 120 27 172 68l12 -80c-50 -40 -111 -64 -190 -64c-70 0 -132 24 -173 76c-45 -41 -106 -76 -185 -76c-91 0 -156 45 -156 133c0 112 93 165 292 186v21c0 60 -27 81 -82 81c-58 0 -113 -18 -165 -41l-12 77
c57 23 110 40 178 40c82 0 122 -18 148 -67c34 43 83 67 144 67c139 0 202 -107 202 -239zM656 296c-10 77 -45 121 -113 121c-55 0 -103 -39 -116 -121h229zM350 127c-10 32 -17 70 -17 113v1c-168 -18 -204 -65 -204 -113c0 -41 31 -64 80 -64c50 0 95 20 141 63zM550 674
l-134 -127h-60l86 151z" />
    <glyph glyph-name="OE" unicode="&#x152;" horiz-adv-x="876" 
d="M835 0h-416c-239 0 -362 143 -362 344c0 205 130 346 367 346h401v-86h-277v-200h216l13 -86h-229v-232h287v-86zM455 85v520h-36c-165 0 -266 -84 -266 -260c0 -172 106 -260 264 -260h38z" />
    <glyph glyph-name="oe" unicode="&#x153;" horiz-adv-x="851" 
d="M807 248v-19h-324c4 -111 56 -163 139 -163c69 0 120 27 172 68l12 -80c-51 -40 -111 -64 -190 -64c-90 0 -145 37 -178 96c-35 -58 -88 -96 -176 -96c-127 0 -219 91 -219 248s92 249 219 249c89 0 146 -41 177 -97c34 59 87 97 166 97c139 0 202 -107 202 -239z
M717 296c-11 77 -45 121 -113 121c-56 0 -103 -39 -116 -121h229zM394 238c0 98 -46 174 -132 174s-129 -74 -129 -174c0 -98 45 -174 129 -174c88 0 132 74 132 174z" />
    <glyph glyph-name="Eth" unicode="&#xd0;" horiz-adv-x="720" 
d="M663 346c0 -205 -130 -346 -367 -346h-196v319h-75l-14 84h89v287h200c240 0 363 -142 363 -344zM566 345c0 173 -105 260 -263 260h-109v-202h164v-84h-164v-234h106c166 0 266 84 266 260z" />
    <glyph glyph-name="eth" unicode="&#xf0;" horiz-adv-x="539" 
d="M278 507h-80l60 92c-34 21 -73 37 -115 49l12 74c54 -14 103 -34 146 -59l39 59l77 -14l-59 -85c85 -73 134 -178 134 -325c0 -114 -33 -197 -83 -248c-41 -42 -89 -60 -150 -60c-126 0 -216 85 -216 222c0 134 89 237 208 237c57 0 104 -18 143 -45
c-15 65 -43 115 -82 153zM406 288c0 10 -1 20 -1 29c-38 34 -90 58 -141 58c-80 0 -131 -64 -131 -157s50 -154 133 -154c84 0 140 89 140 224z" />
    <glyph glyph-name="Thorn" unicode="&#xde;" horiz-adv-x="540" 
d="M500 359c0 -141 -100 -211 -250 -211h-73v-148h-94v690h94v-132h89c146 0 234 -71 234 -199zM405 356c0 79 -50 119 -144 119h-84v-244h78c94 0 150 39 150 125z" />
    <glyph glyph-name="thorn" unicode="&#xfe;" horiz-adv-x="538" 
d="M495 252c0 -174 -100 -258 -216 -258c-47 0 -90 9 -120 21v-188l-89 -13v894l89 14v-306c34 36 80 71 148 71c103 0 188 -76 188 -235zM405 248c0 104 -47 160 -112 160c-54 0 -96 -33 -134 -84v-229c36 -18 66 -26 113 -26c79 0 133 61 133 179z" />
    <glyph glyph-name="schwa" unicode="&#x259;" horiz-adv-x="499" 
d="M44 423c51 40 112 64 191 64c124 0 221 -75 221 -250c0 -153 -90 -247 -210 -247c-139 0 -203 107 -203 239v19h324c-4 111 -56 163 -139 163c-69 0 -119 -27 -171 -68zM247 60c55 0 102 39 116 121h-230c11 -77 45 -121 114 -121z" />
    <glyph glyph-name="germandbls" unicode="&#xdf;" horiz-adv-x="612" 
d="M577 146c0 -98 -67 -156 -173 -156c-53 0 -110 16 -151 41l14 83c44 -30 94 -50 142 -50c51 0 84 30 84 80c0 46 -20 101 -212 144l-10 70c49 64 82 126 82 190c0 59 -32 92 -82 92c-55 0 -86 -39 -86 -99v-541h-89v402h-71v75h71v54c0 121 69 185 173 185
c108 0 173 -57 173 -164c0 -78 -42 -141 -94 -205c157 -37 229 -97 229 -201z" />
    <glyph glyph-name="zero" unicode="0" horiz-adv-x="619" 
d="M568 338c0 -224 -104 -351 -258 -351c-155 0 -259 127 -259 351s104 351 259 351c154 0 258 -127 258 -351zM476 338c0 176 -62 272 -166 272s-167 -96 -167 -272s63 -272 167 -272s166 96 166 272z" />
    <glyph glyph-name="one" unicode="1" horiz-adv-x="357" 
d="M262 0h-89v584l-141 -53l-10 72l162 75h78v-678z" />
    <glyph glyph-name="two" unicode="2" horiz-adv-x="534" 
d="M485 0h-441v69l250 261c61 64 88 107 88 162c0 76 -44 114 -123 114c-70 0 -131 -33 -184 -80l-13 87c50 43 118 76 202 76c131 0 211 -75 211 -191c0 -82 -35 -137 -118 -222l-192 -196h308z" />
    <glyph glyph-name="three" unicode="3" horiz-adv-x="514" 
d="M468 185c0 -119 -93 -198 -241 -198c-71 0 -142 21 -194 53l15 88c57 -39 113 -60 184 -60c89 0 144 40 144 116c0 82 -55 129 -185 129h-31l-13 82h51c112 0 165 40 165 113c0 58 -42 100 -127 100c-70 0 -129 -25 -179 -65l-13 84c52 38 112 62 196 62
c152 0 215 -86 215 -177c0 -84 -51 -133 -124 -157c87 -24 137 -76 137 -170z" />
    <glyph glyph-name="three.alt" horiz-adv-x="514" 
d="M467 196c0 -126 -94 -209 -240 -209c-70 0 -145 21 -193 53l15 88c58 -40 113 -60 183 -60c87 0 143 47 143 127c0 84 -68 122 -183 122h-36l-11 67l193 210h-282l-13 82h409v-71l-202 -217c130 -10 217 -66 217 -192z" />
    <glyph glyph-name="four" unicode="4" horiz-adv-x="589" 
d="M564 153h-108v-153h-83v153h-338v66l314 459h107v-451h108v-74zM373 227v350l-242 -350h242z" />
    <glyph glyph-name="four.alt" horiz-adv-x="589" 
d="M564 153h-108v-153h-83v153h-338v66l316 462l85 -19l-301 -434h238v173l83 18v-191h108v-75z" />
    <glyph glyph-name="five" unicode="5" 
d="M486 212c0 -144 -108 -225 -248 -225c-85 0 -147 22 -195 52l14 85c48 -34 110 -58 184 -58c88 0 155 46 155 141c0 79 -50 130 -143 130c-50 0 -84 -9 -115 -22l-67 15l24 346h356l12 -80h-293l-15 -197c26 8 60 17 108 17c138 0 223 -82 223 -204z" />
    <glyph glyph-name="six" unicode="6" horiz-adv-x="564" 
d="M428 609c-138 -35 -253 -104 -283 -248c48 32 104 53 171 53c130 0 210 -80 210 -207c0 -128 -99 -220 -233 -220c-141 0 -243 99 -243 286c0 234 151 363 366 416zM296 335c-61 0 -113 -21 -159 -59c0 -128 62 -210 159 -210c82 0 140 51 140 137c0 82 -43 132 -140 132
z" />
    <glyph glyph-name="seven" unicode="7" horiz-adv-x="528" 
d="M483 606l-271 -613l-88 20l258 582h-335l-12 81h448v-70z" />
    <glyph glyph-name="eight" unicode="8" horiz-adv-x="568" 
d="M45 173c0 78 56 138 138 181c-79 40 -112 91 -112 164c0 100 89 171 216 171c134 0 212 -72 212 -171c0 -74 -50 -125 -115 -162c87 -41 139 -90 139 -186c0 -98 -92 -183 -240 -183c-155 0 -238 85 -238 186zM133 177c0 -67 63 -116 152 -116c90 0 150 50 150 112
c0 71 -43 102 -173 149c-77 -32 -129 -85 -129 -145zM158 519c0 -60 40 -90 148 -132c62 31 106 77 106 128c0 58 -48 101 -127 101s-127 -43 -127 -97z" />
    <glyph glyph-name="nine" unicode="9" horiz-adv-x="564" 
d="M126 67c139 29 254 97 290 236c-48 -31 -104 -50 -168 -50c-131 0 -210 81 -210 212s98 224 232 224c142 0 244 -99 244 -286c0 -233 -155 -369 -375 -416zM267 332c61 0 113 20 160 59v7c0 129 -63 212 -159 212c-84 0 -140 -51 -140 -141c0 -86 43 -137 139 -137z" />
    <glyph glyph-name="period" unicode="." horiz-adv-x="227" 
d="M163 0h-99v119h99v-119z" />
    <glyph glyph-name="comma" unicode="," horiz-adv-x="227" 
d="M180 119l-104 -252l-49 12l50 240h103z" />
    <glyph glyph-name="comma.alt" horiz-adv-x="227" 
d="M69 119h93c5 -19 8 -39 8 -58c0 -66 -30 -133 -98 -199l-50 24c41 62 57 115 57 164c0 23 -4 46 -10 69z" />
    <glyph glyph-name="colon" unicode=":" horiz-adv-x="236" 
d="M168 358h-100v119h100v-119zM168 0h-100v119h100v-119z" />
    <glyph glyph-name="semicolon" unicode=";" horiz-adv-x="236" 
d="M175 358h-100v119h100v-119zM178 119l-104 -252l-49 12l50 240h103z" />
    <glyph glyph-name="semicolon.alt" horiz-adv-x="236" 
d="M168 358h-100v119h100v-119zM69 119h93c5 -19 8 -39 8 -58c0 -66 -30 -133 -98 -199l-50 24c41 62 57 115 57 164c0 23 -4 46 -10 69z" />
    <glyph glyph-name="ellipsis" unicode="&#x2026;" horiz-adv-x="726" 
d="M654 0h-100v119h100v-119zM413 0h-100v119h100v-119zM173 0h-100v119h100v-119z" />
    <glyph glyph-name="periodcentered" unicode="&#xb7;" horiz-adv-x="227" 
d="M163 224h-99v119h99v-119z" />
    <glyph glyph-name="bullet" unicode="&#x2022;" horiz-adv-x="421" 
d="M343 345l-19 -123l-113 -18l-113 18l-20 123l20 124l113 17l113 -17z" />
    <glyph glyph-name="ampersand" unicode="&#x26;" horiz-adv-x="681" 
d="M683 17l-97 -23l-101 99c-56 -67 -131 -106 -223 -106c-143 0 -227 67 -227 186c0 99 64 165 156 210c-44 47 -68 88 -68 153c0 90 68 167 188 167c66 0 123 -17 170 -43l-15 -94c-53 34 -106 55 -156 55c-63 0 -94 -34 -94 -83c0 -43 21 -75 69 -123l190 -190
c21 47 37 105 48 176l82 -18c-14 -83 -38 -157 -71 -218zM263 67c63 0 120 26 165 82l-182 180c-75 -35 -117 -85 -117 -146c0 -68 54 -116 134 -116z" />
    <glyph glyph-name="exclam" unicode="!" horiz-adv-x="272" 
d="M190 690l-25 -472l-58 -13l-24 485h107zM186 0h-100v119h100v-119z" />
    <glyph glyph-name="exclamdown" unicode="&#xa1;" horiz-adv-x="272" 
d="M186 571h-100v119h100v-119zM190 0h-107l24 472l58 13z" />
    <glyph glyph-name="question" unicode="?" horiz-adv-x="518" 
d="M463 526c0 -108 -72 -155 -191 -209l-9 -99l-58 -13l-13 165l41 17c94 39 136 71 136 135c0 61 -49 96 -116 96c-78 0 -140 -35 -196 -81l-13 92c61 45 132 74 214 74c122 0 205 -68 205 -177zM284 0h-100v119h100v-119z" />
    <glyph glyph-name="questiondown" unicode="&#xbf;" horiz-adv-x="518" 
d="M55 164c0 108 72 155 191 209l9 99l58 13l13 -165l-41 -17c-94 -39 -136 -71 -136 -135c0 -61 49 -96 116 -96c78 0 140 35 196 81l13 -92c-61 -45 -132 -74 -214 -74c-122 0 -205 68 -205 177zM234 690h100v-119h-100v119z" />
    <glyph glyph-name="quotedblleft" unicode="&#x201c;" horiz-adv-x="409" 
d="M175 686l-29 -221h-103l82 233zM357 686l-29 -221h-103l82 233z" />
    <glyph glyph-name="quotedblright" unicode="&#x201d;" horiz-adv-x="409" 
d="M184 690l-82 -233l-50 12l29 221h103zM366 690l-82 -233l-50 12l29 221h103z" />
    <glyph glyph-name="quotedblleft.alt" horiz-adv-x="409" 
d="M157 465h-93c-6 21 -9 43 -9 64c0 62 25 123 77 174l50 -24c-23 -40 -35 -89 -35 -138c0 -26 3 -52 10 -76zM339 465h-93c-6 21 -9 43 -9 64c0 62 25 123 77 174l50 -24c-23 -40 -35 -89 -35 -138c0 -26 3 -52 10 -76z" />
    <glyph glyph-name="quotedblright.alt" horiz-adv-x="409" 
d="M70 690h93c6 -21 9 -43 9 -64c0 -62 -25 -123 -77 -174l-50 24c23 40 35 89 35 138c0 26 -3 52 -10 76zM252 690h93c6 -21 9 -43 9 -64c0 -62 -25 -123 -77 -174l-50 24c23 40 35 89 35 138c0 26 -3 52 -10 76z" />
    <glyph glyph-name="quoteleft" unicode="&#x2018;" horiz-adv-x="227" 
d="M175 686l-29 -221h-103l82 233z" />
    <glyph glyph-name="quoteright" unicode="&#x2019;" horiz-adv-x="227" 
d="M184 690l-82 -233l-50 12l29 221h103z" />
    <glyph glyph-name="quoteleft.alt" horiz-adv-x="227" 
d="M157 465h-93c-6 21 -9 43 -9 64c0 62 25 123 77 174l50 -24c-23 -40 -35 -89 -35 -138c0 -26 3 -52 10 -76z" />
    <glyph glyph-name="quoteright.alt" horiz-adv-x="227" 
d="M70 690h93c6 -21 9 -43 9 -64c0 -62 -25 -123 -77 -174l-50 24c23 40 35 89 35 138c0 26 -3 52 -10 76z" />
    <glyph glyph-name="quotedblbase" unicode="&#x201e;" horiz-adv-x="409" 
d="M177 119l-82 -233l-50 12l29 221h103zM359 119l-82 -233l-50 12l29 221h103z" />
    <glyph glyph-name="quotesinglbase" unicode="&#x201a;" horiz-adv-x="227" 
d="M177 119l-82 -233l-50 12l29 221h103z" />
    <glyph glyph-name="quotedblbase.alt" horiz-adv-x="409" 
d="M63 119h93c6 -21 9 -43 9 -64c0 -62 -25 -123 -77 -174l-50 24c23 40 35 89 35 138c0 26 -3 52 -10 76zM245 119h93c6 -21 9 -43 9 -64c0 -62 -25 -123 -77 -174l-50 24c23 40 35 89 35 138c0 26 -3 52 -10 76z" />
    <glyph glyph-name="quotesinglbase.alt" horiz-adv-x="227" 
d="M63 119h93c6 -21 9 -43 9 -64c0 -62 -25 -123 -77 -174l-50 24c23 40 35 89 35 138c0 26 -3 52 -10 76z" />
    <glyph glyph-name="guillemotleft" unicode="&#xab;" 
d="M278 477l-146 -238l140 -228l-73 -16l-164 244l161 238h82zM481 477l-146 -238l140 -228l-73 -16l-164 244l161 238h82z" />
    <glyph glyph-name="guillemotright" unicode="&#xbb;" 
d="M492 238l-161 -238h-82l146 238l-140 228l73 16zM289 238l-161 -238h-82l146 238l-140 228l73 16z" />
    <glyph glyph-name="guilsinglleft" unicode="&#x2039;" horiz-adv-x="323" 
d="M278 477l-146 -238l140 -228l-73 -16l-164 244l161 238h82z" />
    <glyph glyph-name="guilsinglright" unicode="&#x203a;" horiz-adv-x="323" 
d="M288 238l-161 -238h-82l146 238l-140 228l73 16z" />
    <glyph glyph-name="hyphen" unicode="-" horiz-adv-x="354" 
d="M300 241h-246v87h246v-87z" />
    <glyph glyph-name="endash" unicode="&#x2013;" horiz-adv-x="454" 
d="M400 242h-346v84h346v-84z" />
    <glyph glyph-name="emdash" unicode="&#x2014;" horiz-adv-x="908" 
d="M854 243h-800v82h800v-82z" />
    <glyph glyph-name="underscore" unicode="_" horiz-adv-x="454" 
d="M456 -104h-458v70h458v-70z" />
    <glyph glyph-name="slash" unicode="/" horiz-adv-x="536" 
d="M515 682l-472 -809l-80 17l472 809z" />
    <glyph glyph-name="backslash" unicode="\" horiz-adv-x="536" 
d="M573 -111l-80 -17l-472 809l80 17z" />
    <glyph glyph-name="bar" unicode="|" horiz-adv-x="266" 
d="M173 -173l-80 -13v895l80 13v-895z" />
    <glyph glyph-name="parenleft" unicode="(" horiz-adv-x="391" 
d="M363 -75l-86 -19c-140 122 -213 238 -213 407c0 176 90 310 253 413l14 -84c-118 -85 -172 -189 -172 -331c0 -138 61 -257 204 -386z" />
    <glyph glyph-name="parenright" unicode=")" horiz-adv-x="391" 
d="M28 703l86 19c140 -122 213 -238 213 -407c0 -176 -90 -310 -253 -413l-14 84c118 85 172 189 172 331c0 138 -61 257 -204 386z" />
    <glyph glyph-name="bracketleft" unicode="[" horiz-adv-x="409" 
d="M365 -104h-278v794h271v-68h-186v-658h182z" />
    <glyph glyph-name="bracketright" unicode="]" horiz-adv-x="409" 
d="M43 690h278v-794h-271v68h186v658h-182z" />
    <glyph glyph-name="braceleft" unicode="{" horiz-adv-x="477" 
d="M433 -104h-118c-98 0 -143 47 -143 131c0 46 13 90 13 138c0 72 -42 95 -98 95h-36l-11 67h48c56 0 97 23 97 94c0 48 -13 92 -13 138c0 85 45 131 143 131h112v-68h-105c-45 0 -65 -24 -65 -62c0 -41 14 -94 14 -138c0 -82 -41 -114 -102 -128v-2
c61 -13 102 -45 102 -128c0 -43 -14 -97 -14 -138c0 -38 18 -62 64 -62h101z" />
    <glyph glyph-name="braceright" unicode="}" horiz-adv-x="477" 
d="M43 690h118c98 0 143 -47 143 -131c0 -46 -13 -90 -13 -138c0 -72 42 -95 98 -95h36l11 -67h-48c-56 0 -97 -23 -97 -94c0 -48 13 -92 13 -138c0 -85 -45 -131 -143 -131h-112v68h105c45 0 65 24 65 62c0 41 -14 94 -14 138c0 82 41 114 102 128v2
c-61 13 -102 45 -102 128c0 43 14 97 14 138c0 38 -18 62 -64 62h-101z" />
    <glyph glyph-name="at" unicode="@" horiz-adv-x="836" 
d="M607 44c-67 0 -117 31 -129 92c-55 -65 -92 -92 -142 -92c-54 0 -106 40 -106 122c0 169 115 281 228 281c47 0 91 -10 135 -26l-35 -209c-2 -13 -6 -38 -6 -55c0 -41 24 -64 64 -64c72 0 124 76 124 210c0 192 -124 288 -284 288c-196 0 -361 -170 -361 -406
c0 -201 124 -290 288 -290c86 0 156 19 217 49l6 -36c-58 -27 -133 -48 -227 -48c-199 0 -328 117 -328 324c0 242 178 443 409 443c195 0 323 -126 323 -323c0 -154 -74 -260 -176 -260zM359 111c30 0 65 27 118 93l30 170c-21 7 -33 9 -59 9c-66 0 -139 -81 -139 -203
c0 -49 19 -69 50 -69z" />
    <glyph glyph-name="copyright" unicode="&#xa9;" horiz-adv-x="799" 
d="M745 346c0 -213 -142 -359 -346 -359c-205 0 -345 144 -345 357c0 214 142 359 346 359c205 0 345 -144 345 -357zM701 345c0 207 -132 322 -301 322c-172 0 -302 -115 -302 -322s132 -322 302 -322c171 0 301 115 301 322zM536 185c-36 -25 -81 -41 -126 -41
c-112 0 -186 82 -186 204c0 121 76 204 186 204c47 0 84 -13 119 -35l-10 -68c-37 28 -71 41 -109 41c-72 0 -119 -56 -119 -142s48 -142 119 -142c38 0 75 15 116 44z" />
    <glyph glyph-name="published" unicode="&#x2117;" horiz-adv-x="799" 
d="M745 346c0 -213 -142 -359 -346 -359c-205 0 -345 144 -345 357c0 214 142 359 346 359c205 0 345 -144 345 -357zM701 345c0 207 -132 322 -301 322c-172 0 -302 -115 -302 -322s132 -322 302 -322c171 0 301 115 301 322zM545 422c0 -83 -58 -126 -148 -126h-39v-146
h-67v394h113c86 0 141 -46 141 -122zM478 420c0 41 -28 64 -77 64h-43v-129h41c49 0 79 22 79 65z" />
    <glyph glyph-name="registered.alt" horiz-adv-x="799" 
d="M745 346c0 -213 -142 -359 -346 -359c-205 0 -345 144 -345 357c0 214 142 359 346 359c205 0 345 -144 345 -357zM701 345c0 207 -132 322 -301 322c-172 0 -302 -115 -302 -322s132 -322 302 -322c171 0 301 115 301 322zM499 150l-113 156h-41v-151h-67v394h115
c85 0 141 -45 141 -121c0 -56 -31 -93 -77 -111l114 -151zM345 490v-127h44c48 0 77 22 77 63c0 39 -26 64 -75 64h-46z" />
    <glyph glyph-name="registered" unicode="&#xae;" horiz-adv-x="563" 
d="M508 470c0 -138 -95 -232 -227 -232c-134 0 -226 93 -226 232c0 138 94 233 227 233s226 -94 226 -233zM476 470c0 132 -87 206 -194 206c-109 0 -195 -74 -195 -206c0 -131 87 -205 194 -205c109 0 195 74 195 205zM393 356l-45 -10l-77 110h-25v-106h-43v257h77
c54 0 90 -27 90 -75c0 -37 -20 -61 -52 -71zM325 529c0 25 -16 38 -45 38h-34v-76h32c29 0 47 12 47 38z" />
    <glyph glyph-name="servicemark" unicode="&#x2120;" horiz-adv-x="800" 
d="M740 345h-60l-18 245l-99 -246h-47l-99 246l-19 -245h-58l27 345h71l103 -258l102 258h69zM163 340c-37 0 -72 9 -99 25l7 58c29 -18 61 -32 93 -32s55 16 55 43c0 29 -16 43 -57 61c-69 31 -95 52 -95 107s44 93 110 93c34 0 61 -7 84 -21l-10 -57c-24 16 -49 27 -76 27
c-33 0 -52 -16 -52 -37c0 -27 14 -39 57 -58c70 -31 95 -54 95 -111c0 -60 -45 -98 -112 -98z" />
    <glyph glyph-name="servicemark.alt" horiz-adv-x="800" 
d="M163 340c-37 0 -72 9 -99 25l7 58c29 -18 61 -32 93 -32s55 16 55 43c0 29 -16 43 -57 61c-69 31 -95 52 -95 107s44 93 110 93c34 0 61 -7 84 -21l-10 -57c-24 16 -49 27 -76 27c-33 0 -52 -16 -52 -37c0 -27 14 -39 57 -58c70 -31 95 -54 95 -111
c0 -60 -45 -98 -112 -98zM730 345h-57v259l-105 -261h-56l-104 261v-259h-56v345h81l108 -271l108 271h81v-345z" />
    <glyph glyph-name="trademark" unicode="&#x2122;" horiz-adv-x="800" 
d="M747 345h-60l-18 245l-99 -246h-47l-99 246l-19 -245h-58l27 345h71l103 -258l102 258h69zM315 636h-113v-291h-60v291h-108v54h272z" />
    <glyph glyph-name="trademark.alt" horiz-adv-x="800" 
d="M743 345h-56v259l-105 -261h-56l-104 261v-259h-56v345h81l108 -271l107 271h81v-345zM315 636h-113v-291h-60v291h-108v54h272z" />
    <glyph glyph-name="asterisk" unicode="*" horiz-adv-x="400" 
d="M359 569l-109 -52l58 -107l-26 -17l-82 87l-83 -87l-25 17l57 107l-108 52l10 29l118 -21l14 118h33l14 -118l119 21z" />
    <glyph glyph-name="dagger" unicode="&#x2020;" horiz-adv-x="499" 
d="M289 611l-22 -135h-35l-21 135v79h78v-79zM454 399h-29l-135 21v33l135 22h29v-76zM210 420l-136 -21h-29v76h29l136 -22v-33zM286 17l-21 -131h-31l-21 131v262l19 119h35l19 -119v-262z" />
    <glyph glyph-name="daggerdbl" unicode="&#x2021;" horiz-adv-x="518" 
d="M298 611l-22 -135h-34l-22 135v79h78v-79zM463 399h-29l-135 21v33l135 22h29v-76zM219 420l-135 -21h-30v76h30l135 -22v-33zM295 230l-19 -119h-34l-20 119v49l20 119h34l19 -119v-49zM463 34h-29l-135 21v33l135 22h29v-76zM219 55l-135 -21h-30v76h30l135 -22v-33z
M298 -182h-78v79l22 136h34l22 -136v-79z" />
    <glyph glyph-name="asciicircum" unicode="^" horiz-adv-x="454" 
d="M367 547h-56l-85 71l-85 -71h-56l99 141h84z" />
    <glyph glyph-name="asciitilde" unicode="~" horiz-adv-x="409" 
d="M359 337c-9 -75 -37 -114 -83 -114c-25 0 -44 9 -71 23c-38 20 -50 25 -65 25s-24 -11 -32 -51l-58 12c9 76 36 114 83 114c25 0 43 -9 70 -23c39 -20 50 -25 66 -25c14 0 23 12 32 52z" />
    <glyph glyph-name="dollar" unicode="$" 
d="M362 740l-11 -67c40 -7 73 -19 101 -31l-13 -84c-29 17 -63 32 -103 40l-33 -217c121 -43 177 -98 177 -196c0 -116 -82 -189 -227 -189h-9l-19 -118l-64 14l16 109c-55 9 -102 25 -135 42l12 84c41 -24 86 -42 138 -51l37 243c-119 43 -171 87 -171 184
c0 117 88 177 213 177h13l12 75zM397 180c0 50 -20 86 -107 119l-36 -229h6c94 0 137 40 137 110zM139 511c0 -52 24 -80 103 -109l32 205h-15c-80 0 -120 -37 -120 -96z" />
    <glyph glyph-name="sterling" unicode="&#xa3;" horiz-adv-x="536" 
d="M45 372h97l45 139c40 125 103 178 219 178c31 0 59 -4 83 -10l-12 -82c-24 7 -46 10 -79 10c-65 0 -102 -34 -130 -121l-37 -114h174l12 -78h-211l-68 -214h342l13 -80h-448v69l72 225h-72v78z" />
    <glyph glyph-name="Euro" unicode="&#x20ac;" horiz-adv-x="591" 
d="M26 388v70h98c32 137 122 231 259 231c71 0 125 -19 170 -52l-15 -86c-47 37 -92 59 -155 59c-87 0 -145 -58 -171 -152h229l11 -70h-252c-2 -16 -2 -33 -2 -50c0 -16 0 -31 1 -45h248v-70h-235c25 -97 85 -156 173 -156c62 0 114 23 165 63l14 -83
c-48 -35 -112 -60 -182 -60c-140 0 -230 94 -260 236h-89l-11 70h90c-1 14 -1 29 -1 44c0 17 0 34 2 51h-87z" />
    <glyph glyph-name="yen" unicode="&#xa5;" horiz-adv-x="607" 
d="M93 226v69h149l-217 368l89 20l189 -340l184 333h98l-224 -381h143l11 -69h-171v-76h166v-69h-166v-81h-85v81h-159l-12 69h171v76h-166z" />
    <glyph glyph-name="cent" unicode="&#xa2;" horiz-adv-x="481" 
d="M433 144c-48 -36 -98 -50 -163 -50h-5l-16 -104l-65 15l16 98c-93 27 -153 108 -153 233c0 159 96 245 224 245h3l17 104l65 -14l-16 -97c37 -7 66 -20 89 -36l-12 -84c-29 23 -57 38 -90 46l-51 -330h4c54 0 93 10 142 51zM132 338c0 -86 31 -136 82 -157l50 326
c-80 -3 -132 -59 -132 -169z" />
    <glyph glyph-name="florin" unicode="&#x192;" horiz-adv-x="382" 
d="M314 453v-75h-105l-60 -378h-89l60 378h-69l12 75h69l14 90c16 99 64 141 163 141c20 0 35 -1 45 -2v-80c-10 1 -30 3 -45 3c-45 0 -67 -22 -76 -77l-12 -75h93z" />
    <glyph glyph-name="numbersign" unicode="#" horiz-adv-x="661" 
d="M537 668l-26 -164h108v-76h-120l-29 -180h116l13 -76h-141l-27 -174h-71l28 174h-169l-28 -179l-68 15l26 164h-108v76h120l28 180h-115l-13 76h140l28 174h71l-28 -174h168l29 179zM260 428l-29 -180h169l28 180h-168z" />
    <glyph glyph-name="paragraph" unicode="&#xb6;" horiz-adv-x="536" 
d="M453 0h-80v609h-70v-144l-33 -199c-143 5 -235 73 -235 208c0 129 91 202 237 202h181v-676z" />
    <glyph glyph-name="section" unicode="&#xa7;" horiz-adv-x="526" 
d="M481 359c0 -41 -15 -74 -30 -99l-72 13c12 22 22 48 22 69c0 37 -19 53 -99 70l-53 11c-94 20 -154 47 -154 130c0 74 67 131 162 131c65 0 115 -10 164 -31l-13 -80c-45 25 -98 40 -153 40c-50 0 -77 -25 -77 -56c0 -32 25 -47 78 -59l90 -20c97 -22 135 -56 135 -119z
M45 317c0 41 15 74 30 99l72 -13c-12 -22 -22 -48 -22 -69c0 -37 19 -53 99 -70l53 -11c94 -20 154 -47 154 -130c0 -74 -67 -131 -162 -131c-65 0 -115 10 -164 31l13 80c45 -25 98 -40 153 -40c50 0 77 25 77 56c0 32 -25 47 -78 59l-90 20c-97 22 -135 56 -135 119z" />
    <glyph glyph-name="ordfeminine" unicode="&#xaa;" horiz-adv-x="381" 
d="M314 357h-54l-6 38c-25 -23 -59 -44 -107 -44c-58 0 -94 35 -94 90c0 73 58 110 196 125v9c0 37 -23 49 -57 49c-36 0 -71 -11 -108 -28l-10 58c40 17 76 27 124 27c78 0 116 -31 116 -103v-221zM323 223h-267v59h257zM249 446v70c-108 -14 -132 -41 -132 -71
c0 -24 16 -39 43 -39c31 0 63 15 89 40z" />
    <glyph glyph-name="ordmasculine" unicode="&#xba;" horiz-adv-x="385" 
d="M340 515c0 -104 -62 -164 -148 -164c-84 0 -147 60 -147 164c0 105 63 166 147 166c86 0 148 -61 148 -166zM334 223h-278v59h268zM271 515c0 60 -26 108 -79 108s-78 -47 -78 -108c0 -60 26 -107 78 -107c53 0 79 47 79 107z" />
    <glyph glyph-name="degree" unicode="&#xb0;" horiz-adv-x="427" 
d="M380 514c0 -97 -69 -166 -167 -166c-97 0 -167 69 -167 166s70 168 167 168c98 0 167 -71 167 -168zM312 514c0 59 -42 104 -99 104c-56 0 -99 -45 -99 -104c0 -60 43 -102 99 -102c57 0 99 42 99 102z" />
    <glyph glyph-name="percent" unicode="%" horiz-adv-x="900" 
d="M370 485c0 -124 -72 -199 -163 -199s-163 75 -163 199c0 125 72 199 163 199s163 -74 163 -199zM269 -7l-68 17l218 336l211 337l69 -17l-218 -336zM855 191c0 -124 -72 -199 -163 -199s-163 75 -163 199c0 125 72 199 163 199s163 -74 163 -199zM292 485
c0 75 -26 136 -85 136c-60 0 -85 -60 -85 -136c0 -74 27 -136 85 -136c60 0 85 61 85 136zM777 191c0 75 -26 136 -85 136c-60 0 -85 -60 -85 -136c0 -74 27 -136 85 -136c60 0 85 61 85 136z" />
    <glyph glyph-name="quotedbl" unicode="&#x22;" horiz-adv-x="409" 
d="M346 676l-25 -208l-52 12l-25 196h102zM164 676l-24 -208l-53 12l-24 196h101z" />
    <glyph glyph-name="quotesingle" unicode="'" horiz-adv-x="227" 
d="M164 676l-24 -208l-53 12l-24 196h101z" />
    <glyph glyph-name="plus" unicode="+" horiz-adv-x="572" 
d="M518 301h-193v-199h-78v199h-193v74h193v199h78v-199h193v-74z" />
    <glyph glyph-name="minus" unicode="&#x2212;" horiz-adv-x="572" 
d="M518 299h-464v78h464v-78z" />
    <glyph glyph-name="divide" unicode="&#xf7;" horiz-adv-x="572" 
d="M335 467h-98v107h98v-107zM518 301h-464v74h464v-74zM335 102h-98v107h98v-107z" />
    <glyph glyph-name="equal" unicode="=" horiz-adv-x="590" 
d="M518 410h-445v80h445v-80zM518 186h-445v80h445v-80z" />
    <glyph glyph-name="multiply" unicode="&#xd7;" horiz-adv-x="572" 
d="M448 122l-163 165l-163 -165l-52 52l165 163l-165 163l54 54l163 -165l163 165l52 -52l-165 -163l165 -163z" />
    <glyph glyph-name="less" unicode="&#x3c;" horiz-adv-x="572" 
d="M504 82l-447 222v68l447 222v-86l-355 -169l355 -170v-87z" />
    <glyph glyph-name="greater" unicode="&#x3e;" horiz-adv-x="572" 
d="M515 304l-447 -222v86l355 169l-355 170v87l447 -222v-68z" />
    <glyph glyph-name="plusminus" unicode="&#xb1;" horiz-adv-x="540" 
d="M460 371h-152v-157h-76v157h-152v70h152v158h76v-158h152v-70zM492 95h-444v70h444v-70z" />
    <glyph glyph-name="onehalf" unicode="&#xbd;" horiz-adv-x="810" 
d="M322 311h-260v60h96v240l-93 -35l-9 58l119 49h53v-312h84zM772 0h-280v60l142 124c36 32 50 48 50 75c0 32 -26 49 -59 49c-41 0 -79 -17 -114 -39l-10 66c34 21 77 38 130 38c84 0 132 -48 132 -106c0 -46 -24 -76 -76 -119l-102 -84h175zM248 -8l-63 18l203 338
l194 336l63 -18l-204 -338z" />
    <glyph glyph-name="onequarter" unicode="&#xbc;" horiz-adv-x="810" 
d="M322 311h-260v60h96v240l-93 -35l-9 58l119 49h53v-312h84zM773 74h-57v-79h-63v79h-186v51l153 243h96v-241h57v-53zM654 128v91l2 99h-7l-33 -61l-46 -76l-33 -51l2 -4l56 2h59zM263 -8l-63 18l203 338l194 336l63 -18l-204 -338z" />
    <glyph glyph-name="threequarters" unicode="&#xbe;" horiz-adv-x="810" 
d="M317 410c0 -67 -62 -107 -152 -107c-47 0 -94 12 -126 30l10 61c36 -18 76 -30 119 -30c44 0 73 20 73 53c0 38 -29 52 -102 52h-30l-10 61h43c66 0 92 18 92 49c0 29 -23 44 -63 44c-44 0 -82 -12 -116 -33l-10 61c36 19 75 33 127 33c92 0 137 -38 137 -94
c0 -45 -30 -74 -81 -90c57 -15 89 -41 89 -90zM773 74h-57v-79h-63v79h-186v51l153 243h96v-241h57v-53zM654 128v91l2 99h-7l-33 -61l-46 -76l-33 -51l2 -4l56 2h59zM253 -8l-63 18l203 338l194 336l63 -18l-204 -338z" />
    <glyph glyph-name="one.sup" unicode="&#xb9;" horiz-adv-x="360" 
d="M322 411h-260v60h96v240l-93 -35l-9 58l119 49h53v-312h84z" />
    <glyph glyph-name="two.sup" unicode="&#xb2;" horiz-adv-x="360" 
d="M322 411h-280v60l142 124c36 32 50 48 50 75c0 32 -26 49 -59 49c-41 0 -79 -17 -114 -39l-10 66c34 21 77 38 130 38c84 0 132 -48 132 -106c0 -46 -24 -76 -76 -119l-102 -84h175z" />
    <glyph glyph-name="three.sup" unicode="&#xb3;" horiz-adv-x="360" 
d="M317 510c0 -67 -62 -107 -152 -107c-47 0 -94 12 -126 30l10 61c36 -18 76 -30 119 -30c44 0 73 20 73 53c0 38 -29 52 -102 52h-30l-10 61h43c66 0 92 18 92 49c0 29 -23 44 -63 44c-44 0 -82 -12 -116 -33l-10 61c36 19 75 33 127 33c92 0 137 -38 137 -94
c0 -45 -30 -74 -81 -90c57 -15 89 -41 89 -90z" />
    <glyph glyph-name="space" unicode=" " horiz-adv-x="220" 
 />
    <glyph glyph-name="uni00A0" unicode="&#xa0;" horiz-adv-x="110" 
 />
    <glyph glyph-name="emspace" unicode="&#x2003;" horiz-adv-x="1000" 
 />
    <glyph glyph-name="enspace" unicode="&#x2002;" horiz-adv-x="500" 
 />
    <glyph glyph-name="threeperemspace" unicode="&#x2004;" horiz-adv-x="333" 
 />
    <glyph glyph-name="fourperemspace" unicode="&#x2005;" horiz-adv-x="250" 
 />
    <glyph glyph-name="thinspace" unicode="&#x2009;" horiz-adv-x="133" 
 />
    <glyph glyph-name="hairspace" unicode="&#x200a;" horiz-adv-x="75" 
 />
    <glyph glyph-name="NUL" horiz-adv-x="0" 
 />
    <glyph glyph-name="hcoslug" horiz-adv-x="694" 
d="M273 18h-26c0 -9 3 -12 10 -12c5 0 8 2 9 7h7c-2 -8 -7 -14 -18 -14c-13 0 -21 8 -21 20s9 21 20 21c14 0 20 -9 19 -22zM254 35c-4 0 -7 -3 -7 -12h14c0 8 -2 12 -7 12zM195 78c5 0 8 4 8 16c0 11 -3 15 -8 15s-8 -4 -8 -15c0 -12 3 -16 8 -16zM210 4c5 0 8 4 8 16
c0 11 -3 15 -8 15s-8 -4 -8 -15c0 -12 3 -16 8 -16zM210 -1c-12 0 -21 8 -21 21c0 12 9 20 21 20s21 -8 21 -20s-9 -21 -21 -21zM546 4c5 0 8 4 8 16c0 11 -3 15 -8 15s-8 -4 -8 -15c0 -12 3 -16 8 -16zM546 -1c-12 0 -21 8 -21 21c0 12 9 20 21 20s21 -8 21 -20
s-9 -21 -21 -21zM125 74v7h7v41h-7v7h51v-20h-8c-2 11 -4 13 -11 13h-12v-18h4c5 0 5 1 6 8h7v-23h-7c-1 7 -1 8 -6 8h-4v-16h10v-7h-30zM195 73c-12 0 -21 8 -21 21c0 12 9 20 21 20s21 -8 21 -20s-9 -21 -21 -21zM644 -100v800h-594v-800h594zM498 -1c-18 0 -29 11 -29 28
c0 18 13 30 27 30c7 0 12 -3 16 -7l1 6h8v-22h-8c-4 12 -7 16 -15 16s-14 -6 -14 -22c0 -15 6 -22 16 -22c8 0 13 7 14 16h8c-1 -14 -9 -23 -24 -23zM372 80c5 0 7 5 7 13s-2 13 -7 13c-6 0 -8 -6 -8 -13c0 -8 2 -13 8 -13zM276 0v7h6v25h-7v7h7v1c0 13 9 19 19 19
c3 0 7 -1 9 -2l10 2v-52h6v-7h-23v7h5v25h-14v-25h5v-7h-23zM368 0v7h6v25h-6v7h18v-10c3 8 7 11 12 11s8 -3 8 -8c0 -4 -3 -7 -7 -7c-3 0 -6 2 -6 6v1c-2 0 -5 -4 -7 -9v-16h8v-7h-26zM352 73v52h-6v7h18v-27c2 6 7 9 13 9c9 0 15 -8 15 -20c0 -9 -4 -21 -16 -21
c-7 0 -11 3 -14 8l-4 -8h-6zM400 75c7 0 8 -7 5 -10c4 0 7 3 8 8c-4 10 -16 33 -16 33h-5v7h25v-7h-6l9 -20l8 20h-5v7h17v-7h-5l-13 -31c-4 -10 -9 -16 -18 -16c-7 0 -11 4 -11 9c0 4 3 7 7 7zM247 428c0 17 11 29 27 29c17 0 29 -15 29 -38c0 -17 -7 -33 -18 -50
c-23 22 -38 36 -38 59zM302 74v14h7c4 -6 7 -9 12 -9c3 0 5 2 5 4c0 8 -24 3 -24 19c0 6 5 12 14 12c5 0 9 -2 11 -5l2 5h6v-13h-7c-3 4 -6 7 -10 7c-3 0 -5 -2 -5 -4c0 -8 24 -2 24 -18c0 -7 -5 -13 -14 -13c-7 0 -10 3 -13 5l-1 -4h-7zM261 219c-30 0 -52 23 -52 54
c0 15 5 29 16 40c18 -17 46 -47 74 -82c-11 -9 -23 -12 -38 -12zM274 122l12 2v-11h13v-7h-13v-20c0 -3 1 -5 4 -5c2 0 4 2 5 7l5 -2c-2 -9 -6 -13 -14 -13s-12 5 -12 13v20h-7v7h7v9zM428 306c-15 -9 -31 -22 -46 -42c25 -29 42 -41 62 -41c21 0 33 12 43 29l7 -2
c-2 -58 -37 -94 -80 -94c-30 0 -52 11 -85 45c-28 -31 -62 -45 -104 -45c-60 0 -109 40 -109 93c0 42 29 73 82 91c-21 22 -31 40 -31 69c0 43 42 85 109 85c62 0 95 -39 95 -74c0 -13 -3 -24 -9 -34c27 1 47 -10 49 -37c16 24 35 38 60 38c28 0 50 -21 50 -52
s-22 -54 -50 -54c-18 0 -34 10 -43 25zM219 74v7h6v25h-6v7h17v-10c3 7 7 11 14 11c9 0 12 -6 12 -14v-19h6v-7h-22v7h4v18c0 4 -2 7 -6 7s-7 -4 -7 -10v-15h4v-7h-22zM446 33h18v-7h-5c-3 -6 -6 -10 -9 -14c2 -3 4 -5 6 -5s3 1 4 5l5 -1c-2 -7 -5 -12 -13 -12
c-5 0 -8 1 -12 6c-4 -4 -9 -6 -15 -6c-12 0 -18 6 -18 14s6 13 13 15c-4 4 -6 7 -6 12c0 7 7 14 17 14c9 0 14 -6 14 -12s-4 -9 -11 -12c5 -5 8 -9 12 -13c2 2 5 6 6 9h-6v7zM429 6c2 0 5 1 8 3c-5 6 -9 11 -14 16c-2 -2 -4 -5 -4 -9c0 -6 4 -10 10 -10zM294 42v-3h14v5
c-3 0 -6 2 -6 6c0 2 1 3 1 3s-1 1 -3 1c-3 0 -6 -2 -6 -12zM425 43c0 -3 2 -6 6 -10c3 2 5 5 5 9c0 3 -2 6 -6 6c-3 0 -5 -2 -5 -5zM312 342c19 13 33 24 42 34c23 -23 18 -47 -1 -80c-13 15 -25 30 -41 46zM366 18h-26c0 -9 3 -12 10 -12c5 0 8 2 9 7h7
c-2 -8 -7 -14 -18 -14c-13 0 -21 8 -21 20s9 21 20 21c14 0 20 -9 19 -22zM347 35c-4 0 -7 -3 -7 -12h14c0 8 -2 12 -7 12zM124 0v7h8v41h-8v7h29v-7h-8v-16h22v16h-8v7h29v-7h-8v-41h8v-7h-29v7h8v18h-22v-18h8v-7h-29zM576 13c4 0 7 -3 7 -7s-3 -7 -7 -7s-7 3 -7 7
s3 7 7 7z" />
    <glyph glyph-name="A.flat" horiz-adv-x="693" 
d="M29 0l270 693h94l271 -693h-101l-78 207h-282l-77 -207h-97zM344 583l-110 -293h220z" />
    <glyph glyph-name="E.flat" horiz-adv-x="506" 
d="M465 0h-382v690h372v-86h-278v-200h223v-86h-223v-232h288v-86z" />
    <glyph glyph-name="F.flat" horiz-adv-x="478" 
d="M442 604h-265v-211h215v-86h-215v-307h-94v690h359v-86z" />
    <glyph glyph-name="G.flat" horiz-adv-x="697" 
d="M624 54c-59 -38 -142 -67 -233 -67c-219 0 -336 144 -336 357c0 214 122 359 328 359c92 0 156 -23 210 -59l-15 -96c-51 40 -115 69 -196 69c-151 0 -230 -106 -230 -272s81 -271 239 -271c60 0 100 12 140 34v183h-165v86h258v-323z" />
    <glyph glyph-name="K.flat" horiz-adv-x="613" 
d="M614 0h-124l-313 350v-350h-94v690h94v-310l286 310h120l-304 -324z" />
    <glyph glyph-name="L.flat" horiz-adv-x="468" 
d="M434 0h-351v690h94v-602h257v-88z" />
    <glyph glyph-name="Q.alt_flat" horiz-adv-x="751" 
d="M695 88v-109l-113 88c-55 -51 -127 -80 -211 -80c-194 0 -317 144 -317 357c0 214 125 359 319 359c195 0 317 -144 317 -357c0 -83 -20 -156 -55 -214zM594 345c0 166 -86 272 -222 272c-137 0 -221 -106 -221 -272s85 -272 221 -272c57 0 104 17 140 48l-118 87v111
l168 -132c21 42 32 95 32 158z" />
    <glyph glyph-name="R.flat" horiz-adv-x="573" 
d="M564 0h-114l-203 291h-70v-291h-94v690h188c141 0 229 -70 229 -196c0 -105 -61 -167 -151 -191zM406 489c0 75 -47 118 -139 118h-90v-237h80c91 0 149 41 149 119z" />
    <glyph glyph-name="T.flat" horiz-adv-x="600" 
d="M567 604h-220v-604h-94v604h-220v86h534v-86z" />
    <glyph glyph-name="V.flat" horiz-adv-x="682" 
d="M653 690l-268 -695h-86l-270 695h104l210 -566l209 566h101z" />
    <glyph glyph-name="W.flat" horiz-adv-x="1017" 
d="M982 690l-208 -693h-79l-187 562l-187 -562h-78l-208 693h100l152 -542l176 542h94l176 -542l151 542h98z" />
    <glyph glyph-name="W.alt_flat" horiz-adv-x="1024" 
d="M993 690l-247 -693h-84l-149 391l-145 -391h-83l-254 693h104l193 -565l140 382l-70 183h104l203 -565l187 565h101z" />
    <glyph glyph-name="X.flat" horiz-adv-x="636" 
d="M604 0h-108l-183 287l-183 -287h-104l235 356l-217 334h108l164 -263l166 263h105l-219 -331z" />
    <glyph glyph-name="Y.flat" horiz-adv-x="641" 
d="M619 690l-251 -416v-274h-94v274l-252 416h108l192 -328l190 328h107z" />
    <glyph glyph-name="Z.flat" horiz-adv-x="596" 
d="M549 0h-506v70l393 538h-371v82h484v-70l-393 -538h393v-82z" />
    <glyph glyph-name="f.flat" horiz-adv-x="304" 
d="M296 633c-10 2 -28 4 -46 4c-41 0 -66 -17 -66 -61v-99h102v-75h-102v-402h-87v402h-72v75h72v108c0 95 63 131 148 131c14 0 26 -1 38 -2z" />
    <glyph glyph-name="k.flat" horiz-adv-x="481" 
d="M475 0h-110l-206 250v-250h-89v708l89 14v-445l185 200h107l-201 -211z" />
    <glyph glyph-name="t.flat" horiz-adv-x="337" 
d="M299 -2c-15 -3 -36 -6 -67 -6c-84 0 -139 30 -139 126v284h-72v75h72v159l87 13v-172h110v-75h-110v-268c0 -39 16 -63 66 -63c16 0 30 1 41 3z" />
    <glyph glyph-name="v.flat" horiz-adv-x="473" 
d="M450 477l-169 -480h-87l-171 480h96l120 -370l118 370h93z" />
    <glyph glyph-name="w.flat" horiz-adv-x="724" 
d="M696 477l-153 -479h-75l-106 360l-105 -360h-74l-155 479h91l102 -353l105 353h75l105 -353l101 353h89z" />
    <glyph glyph-name="x.flat" horiz-adv-x="472" 
d="M440 0h-96l-110 180l-111 -180h-94l158 242l-152 235h97l103 -170l105 170h93l-151 -232z" />
    <glyph glyph-name="y.flat" horiz-adv-x="483" 
d="M460 477l-195 -527c-39 -106 -91 -132 -161 -132c-19 0 -29 2 -38 4l-13 81c15 -4 33 -7 47 -7c40 0 67 19 86 70l12 32l-177 479h95l126 -371l125 371h93z" />
    <glyph glyph-name="z.flat" horiz-adv-x="452" 
d="M409 0h-374v70l267 333h-251v74h353v-70l-268 -333h273v-74z" />
    <glyph glyph-name="two.flat" horiz-adv-x="534" 
d="M479 0h-435v70l250 260c61 64 88 107 88 162c0 76 -44 114 -123 114c-70 0 -131 -33 -184 -80l-13 87c50 43 118 76 202 76c131 0 211 -75 211 -191c0 -82 -35 -137 -118 -222l-192 -195h314v-81z" />
    <glyph glyph-name="three.flat" horiz-adv-x="514" 
d="M468 185c0 -119 -93 -198 -241 -198c-71 0 -142 21 -194 53l15 88c57 -39 113 -60 184 -60c89 0 144 40 144 116c0 82 -55 129 -185 129h-39v82h46c112 0 165 40 165 113c0 58 -42 100 -127 100c-70 0 -129 -25 -179 -65l-13 84c52 38 112 62 196 62
c152 0 215 -86 215 -177c0 -84 -51 -133 -124 -157c87 -24 137 -76 137 -170z" />
    <glyph glyph-name="three.alt_flat" horiz-adv-x="514" 
d="M467 196c0 -126 -94 -209 -240 -209c-70 0 -145 21 -193 53l15 88c58 -40 113 -60 183 -60c87 0 143 47 143 127c0 84 -68 122 -183 122h-36l-11 67l193 210h-289v82h403v-71l-202 -217c130 -10 217 -66 217 -192z" />
    <glyph glyph-name="four.alt_flat" horiz-adv-x="589" 
d="M564 153h-108v-153h-83v153h-338v66l313 457h98l-311 -448h238v181h83v-181h108v-75z" />
    <glyph glyph-name="five.flat" 
d="M486 212c0 -144 -108 -225 -248 -225c-85 0 -147 22 -195 52l14 85c48 -34 110 -58 184 -58c88 0 155 46 155 141c0 79 -50 130 -143 130c-50 0 -84 -9 -115 -22l-67 15l24 346h362v-80h-287l-15 -197c26 8 60 17 108 17c138 0 223 -82 223 -204z" />
    <glyph glyph-name="seven.flat" horiz-adv-x="528" 
d="M483 606l-268 -606h-97l264 595h-343v81h444v-70z" />
    <glyph glyph-name="sterling.flat" horiz-adv-x="536" 
d="M45 372h97l45 139c40 125 103 178 219 178c31 0 59 -4 83 -10l-12 -82c-24 7 -46 10 -79 10c-65 0 -102 -34 -130 -121l-37 -114h180v-78h-205l-68 -214h349v-80h-442v69l72 225h-72v78z" />
    <glyph glyph-name="Euro.flat" horiz-adv-x="591" 
d="M26 388v70h98c32 137 122 231 259 231c71 0 125 -19 170 -52l-15 -86c-47 37 -92 59 -155 59c-87 0 -145 -58 -171 -152h235v-70h-247c-2 -16 -2 -33 -2 -50c0 -16 0 -31 1 -45h248v-70h-235c25 -97 85 -156 173 -156c62 0 114 23 165 63l14 -83
c-48 -35 -112 -60 -182 -60c-140 0 -230 94 -260 236h-96v70h86c-1 14 -1 29 -1 44c0 17 0 34 2 51h-87z" />
    <glyph glyph-name="yen.flat" horiz-adv-x="611" 
d="M97 226v69h149l-224 381h100l185 -333l184 333h98l-224 -381h149v-69h-166v-76h166v-69h-166v-81h-85v81h-166v69h166v76h-166z" />
    <glyph glyph-name="numbersign.flat" horiz-adv-x="661" 
d="M539 678l-28 -174h108v-76h-120l-29 -180h124v-76h-136l-27 -174h-71l28 174h-169l-27 -174h-71l27 174h-107v76h119l29 180h-123v76h135l28 174h71l-28 -174h168l28 174h71zM260 428l-29 -180h169l28 180h-168z" />
    <glyph glyph-name="ordfeminine.flat" horiz-adv-x="381" 
d="M314 357h-54l-6 38c-25 -23 -59 -44 -107 -44c-58 0 -94 35 -94 90c0 73 58 110 196 125v9c0 37 -23 49 -57 49c-36 0 -71 -11 -108 -28l-10 58c40 17 76 27 124 27c78 0 116 -31 116 -103v-221zM317 223h-261v59h261v-59zM249 446v70c-108 -14 -132 -41 -132 -71
c0 -24 16 -39 43 -39c31 0 63 15 89 40z" />
    <glyph glyph-name="ordmasculine.flat" horiz-adv-x="385" 
d="M340 515c0 -104 -62 -164 -148 -164c-84 0 -147 60 -147 164c0 105 63 166 147 166c86 0 148 -61 148 -166zM329 223h-273v59h273v-59zM271 515c0 60 -26 108 -79 108s-78 -47 -78 -108c0 -60 26 -107 78 -107c53 0 79 47 79 107z" />
    <glyph glyph-name="percent.flat" horiz-adv-x="900" 
d="M370 485c0 -124 -72 -199 -163 -199s-163 75 -163 199c0 125 72 199 163 199s163 -74 163 -199zM273 0h-79l225 346l207 330h79l-224 -346zM855 191c0 -124 -72 -199 -163 -199s-163 75 -163 199c0 125 72 199 163 199s163 -74 163 -199zM292 485c0 75 -26 136 -85 136
c-60 0 -85 -60 -85 -136c0 -74 27 -136 85 -136c60 0 85 61 85 136zM777 191c0 75 -26 136 -85 136c-60 0 -85 -60 -85 -136c0 -74 27 -136 85 -136c60 0 85 61 85 136z" />
    <glyph glyph-name="ampersand.flat" horiz-adv-x="689" 
d="M700 0h-120l-95 93c-56 -67 -131 -106 -223 -106c-143 0 -227 67 -227 186c0 99 64 165 156 210c-44 47 -68 88 -68 153c0 90 68 167 188 167c66 0 123 -17 170 -43l-15 -94c-53 34 -106 55 -156 55c-63 0 -94 -34 -94 -83c0 -43 21 -75 69 -123l190 -190
c21 47 37 105 48 176l82 -18c-14 -83 -38 -157 -71 -218zM263 67c63 0 120 26 165 82l-182 180c-75 -35 -117 -85 -117 -146c0 -68 54 -116 134 -116z" />
    <glyph glyph-name="exclam.flat" horiz-adv-x="272" 
d="M190 690l-25 -478h-57l-25 478h107zM186 0h-100v119h100v-119z" />
    <glyph glyph-name="exclamdown.flat" horiz-adv-x="272" 
d="M83 0l25 478h57l25 -478h-107zM87 690h100v-119h-100v119z" />
    <glyph glyph-name="guillemotleft.flat" 
d="M278 477l-146 -238l146 -239h-82l-161 239l161 238h82zM481 477l-146 -238l146 -239h-82l-161 239l161 238h82z" />
    <glyph glyph-name="guillemotright.flat" 
d="M249 0l146 238l-146 239h82l161 -239l-161 -238h-82zM46 0l146 238l-146 239h82l161 -239l-161 -238h-82z" />
    <glyph glyph-name="guilsinglleft.flat" horiz-adv-x="323" 
d="M278 477l-146 -238l146 -239h-82l-161 239l161 238h82z" />
    <glyph glyph-name="guilsinglright.flat" horiz-adv-x="323" 
d="M46 0l146 238l-146 239h82l161 -239l-161 -238h-82z" />
    <glyph glyph-name="parenleft.flat" horiz-adv-x="391" 
d="M159 314c0 -140 54 -243 172 -328l-14 -84c-163 103 -253 236 -253 412s90 309 253 412l14 -84c-118 -85 -172 -188 -172 -328z" />
    <glyph glyph-name="parenright.flat" horiz-adv-x="391" 
d="M232 314c0 140 -54 243 -172 328l14 84c163 -103 253 -236 253 -412s-90 -309 -253 -412l-14 84c118 85 172 188 172 328z" />
    <glyph glyph-name="bracketleft.flat" horiz-adv-x="409" 
d="M358 -104h-271v794h271v-68h-186v-658h186v-68z" />
    <glyph glyph-name="bracketright.flat" horiz-adv-x="409" 
d="M50 690h271v-794h-271v68h186v658h-186v68z" />
    <glyph glyph-name="braceleft.flat" horiz-adv-x="477" 
d="M427 -104h-112c-98 0 -143 47 -143 131c0 46 13 90 13 138c0 72 -42 95 -98 95h-42v67h43c56 0 97 23 97 94c0 48 -13 92 -13 138c0 85 45 131 143 131h112v-68h-105c-45 0 -65 -24 -65 -62c0 -41 14 -94 14 -138c0 -82 -41 -114 -102 -128v-2c61 -13 102 -45 102 -128
c0 -43 -14 -97 -14 -138c0 -38 18 -62 64 -62h106v-68z" />
    <glyph glyph-name="braceright.flat" horiz-adv-x="477" 
d="M49 690h112c98 0 143 -47 143 -131c0 -46 -13 -90 -13 -138c0 -72 42 -95 98 -95h42v-67h-43c-56 0 -97 -23 -97 -94c0 -48 13 -92 13 -138c0 -85 -45 -131 -143 -131h-112v68h105c45 0 65 24 65 62c0 41 -14 94 -14 138c0 82 41 114 102 128v2c-61 13 -102 45 -102 128
c0 43 14 97 14 138c0 38 -18 62 -64 62h-106v68z" />
    <glyph glyph-name="registered.alt_flat" horiz-adv-x="799" 
d="M745 346c0 -213 -142 -359 -346 -359c-205 0 -345 144 -345 357c0 214 142 359 346 359c205 0 345 -144 345 -357zM701 345c0 207 -132 322 -301 322c-172 0 -302 -115 -302 -322s132 -322 302 -322c171 0 301 115 301 322zM495 155l-109 151h-41v-151h-67v394h115
c85 0 141 -45 141 -121c0 -56 -31 -93 -77 -111l122 -162h-84zM345 490v-127h44c48 0 77 22 77 63c0 39 -26 64 -75 64h-46z" />
    <glyph glyph-name="registered.flat" horiz-adv-x="563" 
d="M508 470c0 -138 -95 -232 -227 -232c-134 0 -226 93 -226 232c0 138 94 233 227 233s226 -94 226 -233zM476 470c0 132 -87 206 -194 206c-109 0 -195 -74 -195 -206c0 -131 87 -205 194 -205c109 0 195 74 195 205zM397 350h-52l-74 106h-25v-106h-43v257h77
c54 0 90 -27 90 -75c0 -37 -20 -61 -52 -71zM325 529c0 25 -16 38 -45 38h-34v-76h32c29 0 47 12 47 38z" />
    <glyph glyph-name="trademark.flat" horiz-adv-x="800" 
d="M747 345h-60l-18 245l-99 -246h-47l-99 246l-19 -245h-58l27 345h71l103 -258l102 258h69zM310 636h-108v-291h-60v291h-108v54h276v-54z" />
    <glyph glyph-name="trademark.alt_flat" horiz-adv-x="800" 
d="M743 345h-56v259l-105 -261h-56l-104 261v-259h-56v345h81l108 -271l107 271h81v-345zM310 636h-108v-291h-60v291h-108v54h276v-54z" />
    <glyph glyph-name="AE.flat" horiz-adv-x="885" 
d="M2 0l411 690h421v-86h-280v-200h224v-86h-224v-232h290v-86h-382v207h-237l-121 -207h-102zM274 290h188v316z" />
    <glyph glyph-name="OE.flat" horiz-adv-x="876" 
d="M835 0h-416c-239 0 -362 143 -362 344c0 205 130 346 367 346h401v-86h-277v-200h222v-86h-222v-232h287v-86zM455 85v520h-36c-165 0 -266 -84 -266 -260c0 -172 106 -260 264 -260h38z" />
    <glyph glyph-name="Eth.flat" horiz-adv-x="720" 
d="M663 346c0 -205 -130 -346 -367 -346h-196v319h-83v84h83v287h200c240 0 363 -142 363 -344zM566 345c0 173 -105 260 -263 260h-109v-202h164v-84h-164v-234h106c166 0 266 84 266 260z" />
    <glyph glyph-name="Dcroat.flat" horiz-adv-x="720" 
d="M663 346c0 -205 -130 -346 -367 -346h-196v319h-83v84h83v287h200c240 0 363 -142 363 -344zM566 345c0 173 -105 260 -263 260h-109v-202h164v-84h-164v-234h106c166 0 266 84 266 260z" />
    <glyph glyph-name="Hbar.flat" horiz-adv-x="737" 
d="M637 0h-94v313h-349v-313h-94v508h-83v79h83v103h94v-103h349v103h94v-103h83v-79h-83v-508zM194 397h349v113h-349v-113z" />
    <glyph glyph-name="Lslash.flat" horiz-adv-x="485" 
d="M351 399l-157 -87v-224h257v-88h-351v259l-83 -47v93l83 46v339h94v-286l157 88v-93z" />
    <glyph glyph-name="Aogonek.flat" horiz-adv-x="693" 
d="M29 0l270 693h94l271 -693h-27l-16 -23c-21 -29 -32 -49 -32 -68c0 -22 13 -31 38 -31c13 0 27 2 42 5v-54c-21 -8 -47 -14 -72 -14c-48 0 -80 23 -80 72c0 33 20 70 58 113h-12l-78 207h-282l-77 -207h-97zM344 583l-110 -293h220z" />
    <glyph glyph-name="Eogonek.flat" horiz-adv-x="506" 
d="M465 0h-30l-16 -23c-21 -29 -32 -49 -32 -68c0 -22 13 -31 38 -31c13 0 27 2 42 5v-54c-21 -8 -47 -14 -72 -14c-48 0 -80 23 -80 72c0 33 20 70 58 113h-290v690h372v-86h-278v-200h223v-86h-223v-232h288v-86z" />
    <glyph glyph-name="Aring.flat" horiz-adv-x="693" 
d="M448 726c0 -34 -14 -62 -37 -80l253 -646h-99l-79 207h-284l-78 -207h-95l250 644c-24 18 -39 47 -39 82c0 59 44 104 104 104s104 -45 104 -104zM344 583l-110 -293h221zM401 726c0 34 -24 60 -57 60s-57 -26 -57 -60s24 -59 57 -59s57 25 57 59z" />
    <glyph glyph-name="Aringacute.flat" horiz-adv-x="693" 
d="M448 726c0 -34 -14 -62 -37 -80l253 -646h-99l-79 207h-284l-78 -207h-95l250 644c-24 18 -39 47 -39 82c0 59 44 104 104 104s104 -45 104 -104zM344 583l-110 -293h221zM503 985l-134 -127h-60l86 151zM401 726c0 34 -24 60 -57 60s-57 -26 -57 -60s24 -59 57 -59
s57 25 57 59z" />
    <glyph glyph-name="Ldot.flat" horiz-adv-x="468" 
d="M416 300h-100v101h100v-101zM434 0h-351v690h94v-602h257v-88z" />
    <glyph glyph-name="Aacute.flat" horiz-adv-x="693" 
d="M29 0l270 693h94l271 -693h-101l-78 207h-282l-77 -207h-97zM344 583l-110 -293h220zM503 889l-134 -127h-60l86 151z" />
    <glyph glyph-name="Agrave.flat" horiz-adv-x="693" 
d="M29 0l270 693h94l271 -693h-101l-78 207h-282l-77 -207h-97zM344 583l-110 -293h220zM383 762h-60l-134 127l108 24z" />
    <glyph glyph-name="Acircumflex.flat" horiz-adv-x="693" 
d="M29 0l270 693h94l271 -693h-101l-78 207h-282l-77 -207h-97zM344 583l-110 -293h220zM487 762h-56l-85 71l-85 -71h-56l99 141h84z" />
    <glyph glyph-name="Abreve.flat" horiz-adv-x="693" 
d="M29 0l270 693h94l271 -693h-101l-78 207h-282l-77 -207h-97zM344 583l-110 -293h220zM488 879c-14 -73 -58 -116 -143 -116c-79 0 -126 41 -140 116l60 13c10 -37 35 -58 82 -58c45 0 69 21 80 58z" />
    <glyph glyph-name="Atilde.flat" horiz-adv-x="693" 
d="M29 0l270 693h94l271 -693h-101l-78 207h-282l-77 -207h-97zM344 583l-110 -293h220zM504 879c-9 -76 -36 -114 -82 -114c-26 0 -44 9 -71 23c-38 20 -50 25 -65 25s-24 -11 -32 -51l-58 12c9 76 36 114 82 114c26 0 44 -9 71 -23c38 -20 50 -25 65 -25s24 12 32 51z" />
    <glyph glyph-name="Amacron.flat" horiz-adv-x="693" 
d="M29 0l270 693h94l271 -693h-101l-78 207h-282l-77 -207h-97zM344 583l-110 -293h220zM479 785h-266v72h266v-72z" />
    <glyph glyph-name="Adieresis.flat" horiz-adv-x="693" 
d="M29 0l270 693h94l271 -693h-101l-78 207h-282l-77 -207h-97zM344 583l-110 -293h220zM485 766h-99v101h99v-101zM306 766h-99v101h99v-101z" />
    <glyph glyph-name="Eacute.flat" horiz-adv-x="506" 
d="M465 0h-382v690h372v-86h-278v-200h223v-86h-223v-232h288v-86zM429 879l-134 -127h-60l86 151z" />
    <glyph glyph-name="Egrave.flat" horiz-adv-x="506" 
d="M465 0h-382v690h372v-86h-278v-200h223v-86h-223v-232h288v-86zM309 752h-60l-134 127l108 24z" />
    <glyph glyph-name="Ecircumflex.flat" horiz-adv-x="506" 
d="M465 0h-382v690h372v-86h-278v-200h223v-86h-223v-232h288v-86zM413 752h-56l-85 71l-85 -71h-56l99 141h84z" />
    <glyph glyph-name="Ecaron.flat" horiz-adv-x="506" 
d="M465 0h-382v690h372v-86h-278v-200h223v-86h-223v-232h288v-86zM131 893h56l85 -71l85 71h56l-99 -141h-84z" />
    <glyph glyph-name="Ebreve.flat" horiz-adv-x="506" 
d="M465 0h-382v690h372v-86h-278v-200h223v-86h-223v-232h288v-86zM414 869c-14 -73 -58 -116 -143 -116c-79 0 -126 41 -140 116l60 13c10 -37 35 -58 82 -58c45 0 69 21 80 58z" />
    <glyph glyph-name="Emacron.flat" horiz-adv-x="506" 
d="M465 0h-382v690h372v-86h-278v-200h223v-86h-223v-232h288v-86zM405 775h-266v72h266v-72z" />
    <glyph glyph-name="Edieresis.flat" horiz-adv-x="506" 
d="M465 0h-382v690h372v-86h-278v-200h223v-86h-223v-232h288v-86zM411 756h-99v101h99v-101zM232 756h-99v101h99v-101z" />
    <glyph glyph-name="Edotaccent.flat" horiz-adv-x="506" 
d="M465 0h-382v690h372v-86h-278v-200h223v-86h-223v-232h288v-86zM322 756h-100v101h100v-101z" />
    <glyph glyph-name="Gbreve.flat" horiz-adv-x="697" 
d="M624 54c-59 -38 -142 -67 -233 -67c-219 0 -336 144 -336 357c0 214 122 359 328 359c92 0 156 -23 210 -59l-15 -96c-51 40 -115 69 -196 69c-151 0 -230 -106 -230 -272s81 -271 239 -271c60 0 100 12 140 34v183h-165v86h258v-323zM514 879
c-14 -73 -58 -116 -143 -116c-79 0 -126 41 -140 116l60 13c10 -37 35 -58 82 -58c45 0 69 21 80 58z" />
    <glyph glyph-name="Gdotaccent.flat" horiz-adv-x="697" 
d="M624 54c-59 -38 -142 -67 -233 -67c-219 0 -336 144 -336 357c0 214 122 359 328 359c92 0 156 -23 210 -59l-15 -96c-51 40 -115 69 -196 69c-151 0 -230 -106 -230 -272s81 -271 239 -271c60 0 100 12 140 34v183h-165v86h258v-323zM422 766h-100v101h100v-101z" />
    <glyph glyph-name="Gcommaaccent.flat" horiz-adv-x="697" 
d="M624 54c-59 -38 -142 -67 -233 -67c-219 0 -336 144 -336 357c0 214 122 359 328 359c92 0 156 -23 210 -59l-15 -96c-51 40 -115 69 -196 69c-151 0 -230 -106 -230 -272s81 -271 239 -271c60 0 100 12 140 34v183h-165v86h258v-323zM310 -95l78 26
c28 -30 41 -56 41 -89c0 -32 -15 -70 -71 -125l-55 14c33 44 46 74 46 100c0 28 -12 47 -39 74z" />
    <glyph glyph-name="Kcommaaccent.flat" horiz-adv-x="613" 
d="M614 0h-124l-313 350v-350h-94v690h94v-310l286 310h120l-304 -324zM247 -85l78 26c28 -30 41 -56 41 -89c0 -32 -15 -70 -71 -125l-55 14c33 44 46 74 46 100c0 28 -12 47 -39 74z" />
    <glyph glyph-name="Lacute.flat" horiz-adv-x="468" 
d="M434 0h-351v690h94v-602h257v-88zM308 874l-134 -127h-60l86 151z" />
    <glyph glyph-name="Lcaron.flat" horiz-adv-x="468" 
d="M434 0h-351v690h94v-602h257v-88zM342 697c12 -23 20 -47 20 -72c0 -46 -29 -89 -67 -122l-45 10c24 36 34 61 34 93c0 25 -10 49 -25 78z" />
    <glyph glyph-name="Lcommaaccent.flat" horiz-adv-x="468" 
d="M434 0h-351v690h94v-602h257v-88zM196 -90l78 26c28 -30 41 -56 41 -89c0 -32 -15 -70 -71 -125l-55 14c33 44 46 74 46 100c0 28 -12 47 -39 74z" />
    <glyph glyph-name="Racute.flat" horiz-adv-x="573" 
d="M564 0h-114l-203 291h-70v-291h-94v690h188c141 0 229 -70 229 -196c0 -105 -61 -167 -151 -191zM406 489c0 75 -47 118 -139 118h-90v-237h80c91 0 149 41 149 119zM437 879l-134 -127h-60l86 151z" />
    <glyph glyph-name="Rcaron.flat" horiz-adv-x="573" 
d="M564 0h-114l-203 291h-70v-291h-94v690h188c141 0 229 -70 229 -196c0 -105 -61 -167 -151 -191zM406 489c0 75 -47 118 -139 118h-90v-237h80c91 0 149 41 149 119zM139 893h56l85 -71l85 71h56l-99 -141h-84z" />
    <glyph glyph-name="Rcommaaccent.flat" horiz-adv-x="573" 
d="M564 0h-114l-203 291h-70v-291h-94v690h188c141 0 229 -70 229 -196c0 -105 -61 -167 -151 -191zM406 489c0 75 -47 118 -139 118h-90v-237h80c91 0 149 41 149 119zM226 -85l78 26c28 -30 41 -56 41 -89c0 -32 -15 -70 -71 -125l-55 14c33 44 46 74 46 100
c0 28 -12 47 -39 74z" />
    <glyph glyph-name="Tcaron.flat" horiz-adv-x="600" 
d="M567 604h-220v-604h-94v604h-220v86h534v-86zM162 893h56l85 -71l85 71h56l-99 -141h-84z" />
    <glyph glyph-name="Tcommaaccent.flat" horiz-adv-x="600" 
d="M567 604h-220v-604h-94v604h-220v86h534v-86zM241 -90l78 26c28 -30 41 -56 41 -89c0 -32 -15 -70 -71 -125l-55 14c33 44 46 74 46 100c0 28 -12 47 -39 74z" />
    <glyph glyph-name="Wacute.flat" horiz-adv-x="1017" 
d="M982 690l-208 -693h-79l-187 562l-187 -562h-78l-208 693h100l152 -542l176 542h94l176 -542l151 542h98zM667 879l-134 -127h-60l86 151z" />
    <glyph glyph-name="Wgrave.flat" horiz-adv-x="1017" 
d="M982 690l-208 -693h-79l-187 562l-187 -562h-78l-208 693h100l152 -542l176 542h94l176 -542l151 542h98zM547 752h-60l-134 127l108 24z" />
    <glyph glyph-name="Wcircumflex.flat" horiz-adv-x="1017" 
d="M982 690l-208 -693h-79l-187 562l-187 -562h-78l-208 693h100l152 -542l176 542h94l176 -542l151 542h98zM651 752h-56l-85 71l-85 -71h-56l99 141h84z" />
    <glyph glyph-name="Wdieresis.flat" horiz-adv-x="1017" 
d="M982 690l-208 -693h-79l-187 562l-187 -562h-78l-208 693h100l152 -542l176 542h94l176 -542l151 542h98zM649 756h-99v101h99v-101zM470 756h-99v101h99v-101z" />
    <glyph glyph-name="Wacute.alt_flat" horiz-adv-x="1024" 
d="M993 690l-247 -693h-84l-149 391l-145 -391h-83l-254 693h104l193 -565l140 382l-70 183h104l203 -565l187 565h101zM669 879l-134 -127h-60l86 151z" />
    <glyph glyph-name="Wgrave.alt_flat" horiz-adv-x="1024" 
d="M993 690l-247 -693h-84l-149 391l-145 -391h-83l-254 693h104l193 -565l140 382l-70 183h104l203 -565l187 565h101zM549 752h-60l-134 127l108 24z" />
    <glyph glyph-name="Wcircumflex.alt_flat" horiz-adv-x="1024" 
d="M993 690l-247 -693h-84l-149 391l-145 -391h-83l-254 693h104l193 -565l140 382l-70 183h104l203 -565l187 565h101zM653 752h-56l-85 71l-85 -71h-56l99 141h84z" />
    <glyph glyph-name="Wdieresis.alt_flat" horiz-adv-x="1024" 
d="M993 690l-247 -693h-84l-149 391l-145 -391h-83l-254 693h104l193 -565l140 382l-70 183h104l203 -565l187 565h101zM472 756h-99v101h99v-101zM651 756h-99v101h99v-101z" />
    <glyph glyph-name="Yacute.flat" horiz-adv-x="641" 
d="M619 690l-251 -416v-274h-94v274l-252 416h108l192 -328l190 328h107zM475 869l-134 -127h-60l86 151z" />
    <glyph glyph-name="Ygrave.flat" horiz-adv-x="641" 
d="M619 690l-251 -416v-274h-94v274l-252 416h108l192 -328l190 328h107zM355 742h-60l-134 127l108 24z" />
    <glyph glyph-name="Ycircumflex.flat" horiz-adv-x="641" 
d="M619 690l-251 -416v-274h-94v274l-252 416h108l192 -328l190 328h107zM459 742h-56l-85 71l-85 -71h-56l99 141h84z" />
    <glyph glyph-name="Ydieresis.flat" horiz-adv-x="641" 
d="M619 690l-251 -416v-274h-94v274l-252 416h108l192 -328l190 328h107zM457 746h-99v101h99v-101zM278 746h-99v101h99v-101z" />
    <glyph glyph-name="Zacute.flat" horiz-adv-x="596" 
d="M549 0h-506v70l393 538h-371v82h484v-70l-393 -538h393v-82zM455 879l-134 -127h-60l86 151z" />
    <glyph glyph-name="Zcaron.flat" horiz-adv-x="596" 
d="M549 0h-506v70l393 538h-371v82h484v-70l-393 -538h393v-82zM157 893h56l85 -71l85 71h56l-99 -141h-84z" />
    <glyph glyph-name="Zdotaccent.flat" horiz-adv-x="596" 
d="M549 0h-506v70l393 538h-371v82h484v-70l-393 -538h393v-82zM348 756h-100v101h100v-101z" />
    <glyph glyph-name="AEacute.flat" horiz-adv-x="885" 
d="M2 0l411 690h421v-86h-280v-200h224v-86h-224v-232h290v-86h-382v207h-237l-121 -207h-102zM274 290h188v316zM675 879l-134 -127h-60l86 151z" />
    <glyph glyph-name="dcroat.flat" horiz-adv-x="538" 
d="M468 0h-71l-11 69c-36 -43 -85 -79 -155 -79c-103 0 -188 75 -188 235c0 174 100 258 216 258c47 0 90 -9 120 -21v100h-127v72h127v74l89 14v-88h68v-72h-68v-562zM379 153v228c-37 19 -66 27 -117 27c-75 0 -129 -61 -129 -179c0 -105 47 -160 111 -160
c55 0 97 33 135 84z" />
    <glyph glyph-name="hbar.flat" 
d="M459 0h-89v325c0 49 -21 82 -73 82c-47 0 -95 -31 -138 -77v-330h-89v562h-66v72h66v74l89 14v-88h129v-72h-129v-148c39 35 94 73 162 73c90 0 138 -54 138 -140v-347z" />
    <glyph glyph-name="lslash.flat" horiz-adv-x="282" 
d="M185 0h-87v276l-83 -46v92l83 46v340l87 14v-306l82 46v-92l-82 -46v-324z" />
    <glyph glyph-name="kcommaaccent.flat" horiz-adv-x="481" 
d="M475 0h-110l-206 250v-250h-89v708l89 14v-445l185 200h107l-201 -211zM191 -90l78 26c28 -30 41 -56 41 -89c0 -32 -15 -70 -71 -125l-55 14c33 44 46 74 46 100c0 28 -12 47 -39 74z" />
    <glyph glyph-name="tcaron.flat" horiz-adv-x="337" 
d="M299 -2c-15 -3 -36 -6 -67 -6c-84 0 -139 30 -139 126v284h-72v75h72v159l87 13v-172h110v-75h-110v-268c0 -39 16 -63 66 -63c16 0 30 1 41 3zM330 734c12 -23 20 -47 20 -72c0 -46 -29 -89 -67 -122l-45 10c24 36 34 61 34 93c0 25 -10 49 -25 78z" />
    <glyph glyph-name="tcommaaccent.flat" horiz-adv-x="337" 
d="M299 -2c-15 -3 -36 -6 -67 -6c-84 0 -139 30 -139 126v284h-72v75h72v159l87 13v-172h110v-75h-110v-268c0 -39 16 -63 66 -63c16 0 30 1 41 3zM130 -90l78 26c28 -30 41 -56 41 -89c0 -32 -15 -70 -71 -125l-55 14c33 44 46 74 46 100c0 28 -12 47 -39 74z" />
    <glyph glyph-name="wacute.flat" horiz-adv-x="724" 
d="M696 477l-153 -479h-75l-106 360l-105 -360h-74l-155 479h91l102 -353l105 353h75l105 -353l101 353h89zM519 674l-134 -127h-60l86 151z" />
    <glyph glyph-name="wgrave.flat" horiz-adv-x="724" 
d="M696 477l-153 -479h-75l-106 360l-105 -360h-74l-155 479h91l102 -353l105 353h75l105 -353l101 353h89zM399 547h-60l-134 127l108 24z" />
    <glyph glyph-name="wcircumflex.flat" horiz-adv-x="724" 
d="M696 477l-153 -479h-75l-106 360l-105 -360h-74l-155 479h91l102 -353l105 353h75l105 -353l101 353h89zM503 547h-56l-85 71l-85 -71h-56l99 141h84z" />
    <glyph glyph-name="wdieresis.flat" horiz-adv-x="724" 
d="M696 477l-153 -479h-75l-106 360l-105 -360h-74l-155 479h91l102 -353l105 353h75l105 -353l101 353h89zM501 551h-99v101h99v-101zM322 551h-99v101h99v-101z" />
    <glyph glyph-name="yacute.flat" horiz-adv-x="483" 
d="M460 477l-195 -527c-39 -106 -91 -132 -161 -132c-19 0 -29 2 -38 4l-13 81c15 -4 33 -7 47 -7c40 0 67 19 86 70l12 32l-177 479h95l126 -371l125 371h93zM399 674l-134 -127h-60l86 151z" />
    <glyph glyph-name="ygrave.flat" horiz-adv-x="483" 
d="M460 477l-195 -527c-39 -106 -91 -132 -161 -132c-19 0 -29 2 -38 4l-13 81c15 -4 33 -7 47 -7c40 0 67 19 86 70l12 32l-177 479h95l126 -371l125 371h93zM279 547h-60l-134 127l108 24z" />
    <glyph glyph-name="ycircumflex.flat" horiz-adv-x="483" 
d="M460 477l-195 -527c-39 -106 -91 -132 -161 -132c-19 0 -29 2 -38 4l-13 81c15 -4 33 -7 47 -7c40 0 67 19 86 70l12 32l-177 479h95l126 -371l125 371h93zM383 547h-56l-85 71l-85 -71h-56l99 141h84z" />
    <glyph glyph-name="ydieresis.flat" horiz-adv-x="483" 
d="M460 477l-195 -527c-39 -106 -91 -132 -161 -132c-19 0 -29 2 -38 4l-13 81c15 -4 33 -7 47 -7c40 0 67 19 86 70l12 32l-177 479h95l126 -371l125 371h93zM381 551h-99v101h99v-101zM202 551h-99v101h99v-101z" />
    <glyph glyph-name="zacute.flat" horiz-adv-x="452" 
d="M409 0h-374v70l267 333h-251v74h353v-70l-268 -333h273v-74zM382 674l-134 -127h-60l86 151z" />
    <glyph glyph-name="zcaron.flat" horiz-adv-x="452" 
d="M409 0h-374v70l267 333h-251v74h353v-70l-268 -333h273v-74zM84 688h56l85 -71l85 71h56l-99 -141h-84z" />
    <glyph glyph-name="zdotaccent.flat" horiz-adv-x="452" 
d="M409 0h-374v70l267 333h-251v74h353v-70l-268 -333h273v-74zM275 551h-100v101h100v-101z" />
    <glyph glyph-name="f_f.flat" horiz-adv-x="608" 
d="M296 633c-10 2 -28 4 -46 4c-41 0 -66 -17 -66 -61v-99h102v-75h-102v-402h-87v402h-72v75h72v108c0 95 63 131 148 131c14 0 26 -1 38 -2zM600 633c-10 2 -28 4 -46 4c-41 0 -66 -17 -66 -61v-99h102v-75h-102v-402h-87v402h-72v75h72v108c0 95 63 131 148 131
c14 0 26 -1 38 -2z" />
    <glyph glyph-name="f_f_i.flat" horiz-adv-x="851" 
d="M296 633c-10 2 -28 4 -46 4c-41 0 -66 -17 -66 -61v-99h102v-75h-102v-402h-87v402h-72v75h72v108c0 95 63 131 148 131c14 0 26 -1 38 -2zM600 633c-10 2 -28 4 -46 4c-41 0 -66 -17 -66 -61v-99h102v-75h-102v-402h-87v402h-72v75h72v108c0 95 63 131 148 131
c14 0 26 -1 38 -2zM786 629c0 -31 -25 -56 -56 -56s-57 25 -57 56s26 57 57 57s56 -26 56 -57zM774 0h-89v477h89v-477z" />
    <glyph glyph-name="f_f_l.flat" horiz-adv-x="851" 
d="M296 633c-10 2 -28 4 -46 4c-41 0 -66 -17 -66 -61v-99h102v-75h-102v-402h-87v402h-72v75h72v108c0 95 63 131 148 131c14 0 26 -1 38 -2zM600 633c-10 2 -28 4 -46 4c-41 0 -66 -17 -66 -61v-99h102v-75h-102v-402h-87v402h-72v75h72v108c0 95 63 131 148 131
c14 0 26 -1 38 -2zM774 0h-89v708l89 14v-722z" />
    <glyph glyph-name="fi.flat" horiz-adv-x="547" 
d="M296 633c-10 2 -28 4 -46 4c-41 0 -66 -17 -66 -61v-99h102v-75h-102v-402h-87v402h-72v75h72v108c0 95 63 131 148 131c14 0 26 -1 38 -2zM482 629c0 -31 -25 -56 -56 -56s-57 25 -57 56s26 57 57 57s56 -26 56 -57zM470 0h-89v477h89v-477z" />
    <glyph glyph-name="fl.flat" horiz-adv-x="547" 
d="M296 633c-10 2 -28 4 -46 4c-41 0 -66 -17 -66 -61v-99h102v-75h-102v-402h-87v402h-72v75h72v108c0 95 63 131 148 131c14 0 26 -1 38 -2zM470 0h-89v708l89 14v-722z" />
    <glyph glyph-name="one.sup_flat" horiz-adv-x="360" 
d="M317 411h-255v60h96v240l-93 -35l-9 58l119 49h53v-312h89v-60z" />
    <glyph glyph-name="two.sup_flat" horiz-adv-x="360" 
d="M316 411h-274v60l142 124c36 32 50 48 50 75c0 32 -26 49 -59 49c-41 0 -79 -17 -114 -39l-10 66c34 21 77 38 130 38c84 0 132 -48 132 -106c0 -46 -24 -76 -76 -119l-102 -84h181v-64z" />
    <glyph glyph-name="three.sup_flat" horiz-adv-x="360" 
d="M317 510c0 -67 -62 -107 -152 -107c-47 0 -94 12 -126 30l10 61c36 -18 76 -30 119 -30c44 0 73 20 73 53c0 38 -29 52 -102 52h-35v61h38c66 0 92 18 92 49c0 29 -23 44 -63 44c-44 0 -82 -12 -116 -33l-10 61c36 19 75 33 127 33c92 0 137 -38 137 -94
c0 -45 -30 -74 -81 -90c57 -15 89 -41 89 -90z" />
    <glyph glyph-name="onehalf.flat" horiz-adv-x="810" 
d="M317 311h-255v60h96v240l-93 -35l-9 58l119 49h53v-312h89v-60zM766 0h-274v60l142 124c36 32 50 48 50 75c0 32 -26 49 -59 49c-41 0 -79 -17 -114 -39l-10 66c34 21 77 38 130 38c84 0 132 -48 132 -106c0 -46 -24 -76 -76 -119l-102 -84h181v-64zM248 -8l-63 18
l203 338l194 336l63 -18l-204 -338z" />
    <glyph glyph-name="onequarter.flat" horiz-adv-x="810" 
d="M773 74h-57v-79h-63v79h-186v51l153 243h96v-241h57v-53zM654 128v91l2 99h-7l-33 -61l-46 -76l-33 -51l2 -4l56 2h59zM317 311h-255v60h96v240l-93 -35l-9 58l119 49h53v-312h89v-60zM263 -8l-63 18l203 338l194 336l63 -18l-204 -338z" />
    <glyph glyph-name="threequarters.flat" horiz-adv-x="810" 
d="M773 74h-57v-79h-63v79h-186v51l153 243h96v-241h57v-53zM654 128v91l2 99h-7l-33 -61l-46 -76l-33 -51l2 -4l56 2h59zM317 410c0 -67 -62 -107 -152 -107c-47 0 -94 12 -126 30l10 61c36 -18 76 -30 119 -30c44 0 73 20 73 53c0 38 -29 52 -102 52h-35v61h38
c66 0 92 18 92 49c0 29 -23 44 -63 44c-44 0 -82 -12 -116 -33l-10 61c36 19 75 33 127 33c92 0 137 -38 137 -94c0 -45 -30 -74 -81 -90c57 -15 89 -41 89 -90zM253 -8l-63 18l203 338l194 336l63 -18l-204 -338z" />
    <glyph glyph-name="i.dot" horiz-adv-x="243" 
d="M178 629c0 -31 -25 -56 -56 -56s-57 25 -57 56s26 57 57 57s56 -26 56 -57zM166 0h-89v477h89v-477z" />
    <glyph glyph-name="fraction" unicode="&#x2044;" horiz-adv-x="270" 
d="M-32 -8l-63 18l203 338l194 336l63 -18l-204 -338z" />
    <glyph glyph-name="acute" unicode="&#xb4;" horiz-adv-x="454" 
d="M331 674l-134 -127h-60l86 151z" />
    <glyph glyph-name="hungarumlaut" unicode="&#x2dd;" horiz-adv-x="454" 
d="M394 676l-129 -125h-53l84 147zM237 676l-129 -125h-53l84 147z" />
    <glyph glyph-name="caron.alt" horiz-adv-x="454" 
d="M265 721c12 -23 20 -47 20 -72c0 -46 -29 -89 -67 -122l-45 10c24 36 34 61 34 93c0 25 -10 49 -25 78z" />
    <glyph glyph-name="grave" unicode="`" horiz-adv-x="454" 
d="M317 547h-60l-134 127l108 24z" />
    <glyph glyph-name="circumflex" unicode="&#x2c6;" horiz-adv-x="454" 
d="M367 547h-56l-85 71l-85 -71h-56l99 141h84z" />
    <glyph glyph-name="caron" unicode="&#x2c7;" horiz-adv-x="454" 
d="M87 688h56l85 -71l85 71h56l-99 -141h-84z" />
    <glyph glyph-name="breve" unicode="&#x2d8;" horiz-adv-x="454" 
d="M369 664c-14 -73 -58 -116 -143 -116c-79 0 -126 41 -140 116l60 13c10 -37 35 -58 82 -58c45 0 69 21 80 58z" />
    <glyph glyph-name="tilde" unicode="&#x2dc;" horiz-adv-x="454" 
d="M380 664c-9 -76 -36 -114 -82 -114c-26 0 -44 9 -71 23c-38 20 -50 25 -65 25s-24 -11 -32 -51l-58 12c9 76 36 114 82 114c26 0 44 -9 71 -23c38 -20 50 -25 65 -25s24 12 32 51z" />
    <glyph glyph-name="macron" unicode="&#xaf;" horiz-adv-x="454" 
d="M360 570h-266v72h266v-72z" />
    <glyph glyph-name="dieresis" unicode="&#xa8;" horiz-adv-x="454" 
d="M366 551h-99v101h99v-101zM187 551h-99v101h99v-101z" />
    <glyph glyph-name="dotaccent" unicode="&#x2d9;" horiz-adv-x="454" 
d="M277 551h-100v101h100v-101z" />
    <glyph glyph-name="ring" unicode="&#x2da;" horiz-adv-x="454" 
d="M331 647c0 -60 -44 -102 -104 -102s-104 42 -104 102c0 59 44 104 104 104s104 -45 104 -104zM284 647c0 34 -24 60 -57 60s-57 -26 -57 -60s24 -59 57 -59s57 25 57 59z" />
    <glyph glyph-name="commaaccent" unicode="&#x326;" horiz-adv-x="454" 
d="M156 -90l78 26c28 -30 41 -56 41 -89c0 -32 -15 -70 -71 -125l-55 14c33 44 46 74 46 100c0 28 -12 47 -39 74z" />
    <glyph glyph-name="cedilla" unicode="&#xb8;" horiz-adv-x="454" 
d="M306 -89l-123 -108h-60l76 133z" />
    <glyph glyph-name="ogonek" unicode="&#x2db;" horiz-adv-x="454" 
d="M233 37l39 -24l-26 -36c-21 -29 -32 -49 -32 -68c0 -22 13 -31 38 -31c13 0 27 2 42 5v-54c-21 -8 -47 -14 -72 -14c-48 0 -80 23 -80 72c0 34 21 71 61 116z" />
    </font>
</defs>
</svg>
